  0
SECTION
  2
HEADER
  9
$ACADVER
  1
AC1027
  9
$ACADMAINTVER
 70
   125
  9
$DWGCODEPAGE
  3
ANSI_1252
  9
$LASTSAVEDBY
  1
DESMETJ
  9
$REQUIREDVERSIONS
160
                 0
  9
$INSBASE
 10
301633.5557147991
 20
-15415.35101980157
 30
0.0
  9
$EXTMIN
 10
300034.5070096393
 20
-15376.38604645362
 30
0.0
  9
$EXTMAX
 10
303116.6187341547
 20
-14389.97298889612
 30
0.0
  9
$LIMMIN
 10
-7.538248165376842
 20
-14.14935531305934
  9
$LIMMAX
 10
219.8961283119841
 20
29.8706144819339
  9
$ORTHOMODE
 70
     0
  9
$REGENMODE
 70
     1
  9
$FILLMODE
 70
     1
  9
$QTEXTMODE
 70
     0
  9
$MIRRTEXT
 70
     0
  9
$LTSCALE
 40
5.0
  9
$ATTMODE
 70
     1
  9
$TEXTSIZE
 40
2.5
  9
$TRACEWID
 40
0.6
  9
$TEXTSTYLE
  7
Standard
  9
$CLAYER
  8
0
  9
$CELTYPE
  6
ByLayer
  9
$CECOLOR
 62
   256
  9
$CELTSCALE
 40
1.0
  9
$DISPSILH
 70
     0
  9
$DIMSCALE
 40
5.0
  9
$DIMASZ
 40
2.5
  9
$DIMEXO
 40
3.0
  9
$DIMDLI
 40
3.75
  9
$DIMRND
 40
0.0
  9
$DIMDLE
 40
0.0
  9
$DIMEXE
 40
1.25
  9
$DIMTP
 40
0.0
  9
$DIMTM
 40
0.0
  9
$DIMTXT
 40
2.5
  9
$DIMCEN
 40
2.5
  9
$DIMTSZ
 40
0.0
  9
$DIMTOL
 70
     0
  9
$DIMLIM
 70
     0
  9
$DIMTIH
 70
     0
  9
$DIMTOH
 70
     0
  9
$DIMSE1
 70
     0
  9
$DIMSE2
 70
     0
  9
$DIMTAD
 70
     1
  9
$DIMZIN
 70
     8
  9
$DIMBLK
  1

  9
$DIMASO
 70
     1
  9
$DIMSHO
 70
     1
  9
$DIMPOST
  1

  9
$DIMAPOST
  1

  9
$DIMALT
 70
     0
  9
$DIMALTD
 70
     3
  9
$DIMALTF
 40
0.03937007874016
  9
$DIMLFAC
 40
1.0
  9
$DIMTOFL
 70
     1
  9
$DIMTVP
 40
0.0
  9
$DIMTIX
 70
     0
  9
$DIMSOXD
 70
     0
  9
$DIMSAH
 70
     0
  9
$DIMBLK1
  1

  9
$DIMBLK2
  1

  9
$DIMSTYLE
  2
ISO-25
  9
$DIMCLRD
 70
     0
  9
$DIMCLRE
 70
     0
  9
$DIMCLRT
 70
     0
  9
$DIMTFAC
 40
1.0
  9
$DIMGAP
 40
0.625
  9
$DIMJUST
 70
     0
  9
$DIMSD1
 70
     0
  9
$DIMSD2
 70
     0
  9
$DIMTOLJ
 70
     0
  9
$DIMTZIN
 70
     8
  9
$DIMALTZ
 70
     0
  9
$DIMALTTZ
 70
     0
  9
$DIMUPT
 70
     0
  9
$DIMDEC
 70
     1
  9
$DIMTDEC
 70
     1
  9
$DIMALTU
 70
     2
  9
$DIMALTTD
 70
     3
  9
$DIMTXSTY
  7
Standard
  9
$DIMAUNIT
 70
     0
  9
$DIMADEC
 70
     0
  9
$DIMALTRND
 40
0.0
  9
$DIMAZIN
 70
     0
  9
$DIMDSEP
 70
    44
  9
$DIMATFIT
 70
     3
  9
$DIMFRAC
 70
     0
  9
$DIMLDRBLK
  1

  9
$DIMLUNIT
 70
     2
  9
$DIMLWD
 70
    -2
  9
$DIMLWE
 70
    -2
  9
$DIMTMOVE
 70
     0
  9
$DIMFXL
 40
1.0
  9
$DIMFXLON
 70
     0
  9
$DIMJOGANG
 40
0.7853981633974483
  9
$DIMTFILL
 70
     0
  9
$DIMTFILLCLR
 70
     0
  9
$DIMARCSYM
 70
     0
  9
$DIMLTYPE
  6

  9
$DIMLTEX1
  6

  9
$DIMLTEX2
  6

  9
$DIMTXTDIRECTION
 70
     0
  9
$LUNITS
 70
     2
  9
$LUPREC
 70
     8
  9
$SKETCHINC
 40
1.0
  9
$FILLETRAD
 40
0.0
  9
$AUNITS
 70
     0
  9
$AUPREC
 70
     8
  9
$MENU
  1
.
  9
$ELEVATION
 40
0.0
  9
$PELEVATION
 40
0.0
  9
$THICKNESS
 40
0.0
  9
$LIMCHECK
 70
     0
  9
$CHAMFERA
 40
1.0
  9
$CHAMFERB
 40
1.0
  9
$CHAMFERC
 40
20.0
  9
$CHAMFERD
 40
0.0
  9
$SKPOLY
 70
     0
  9
$TDCREATE
 40
2452429.399259259
  9
$TDUCREATE
 40
2452429.315931135
  9
$TDUPDATE
 40
2458729.664259259
  9
$TDUUPDATE
 40
2458729.580925926
  9
$TDINDWG
 40
2.5080082986
  9
$TDUSRTIMER
 40
2.5080082986
  9
$USRTIMER
 70
     1
  9
$ANGBASE
 50
0.0
  9
$ANGDIR
 70
     0
  9
$PDMODE
 70
     0
  9
$PDSIZE
 40
0.0
  9
$PLINEWID
 40
0.0
  9
$SPLFRAME
 70
     0
  9
$SPLINETYPE
 70
     6
  9
$SPLINESEGS
 70
     8
  9
$HANDSEED
  5
B59
  9
$SURFTAB1
 70
     6
  9
$SURFTAB2
 70
     6
  9
$SURFTYPE
 70
     6
  9
$SURFU
 70
     6
  9
$SURFV
 70
     6
  9
$UCSBASE
  2

  9
$UCSNAME
  2

  9
$UCSORG
 10
0.0
 20
0.0
 30
0.0
  9
$UCSXDIR
 10
1.0
 20
0.0
 30
0.0
  9
$UCSYDIR
 10
0.0
 20
1.0
 30
0.0
  9
$UCSORTHOREF
  2

  9
$UCSORTHOVIEW
 70
     0
  9
$UCSORGTOP
 10
0.0
 20
0.0
 30
0.0
  9
$UCSORGBOTTOM
 10
0.0
 20
0.0
 30
0.0
  9
$UCSORGLEFT
 10
0.0
 20
0.0
 30
0.0
  9
$UCSORGRIGHT
 10
0.0
 20
0.0
 30
0.0
  9
$UCSORGFRONT
 10
0.0
 20
0.0
 30
0.0
  9
$UCSORGBACK
 10
0.0
 20
0.0
 30
0.0
  9
$PUCSBASE
  2

  9
$PUCSNAME
  2

  9
$PUCSORG
 10
0.0
 20
0.0
 30
0.0
  9
$PUCSXDIR
 10
1.0
 20
0.0
 30
0.0
  9
$PUCSYDIR
 10
0.0
 20
1.0
 30
0.0
  9
$PUCSORTHOREF
  2

  9
$PUCSORTHOVIEW
 70
     0
  9
$PUCSORGTOP
 10
0.0
 20
0.0
 30
0.0
  9
$PUCSORGBOTTOM
 10
0.0
 20
0.0
 30
0.0
  9
$PUCSORGLEFT
 10
0.0
 20
0.0
 30
0.0
  9
$PUCSORGRIGHT
 10
0.0
 20
0.0
 30
0.0
  9
$PUCSORGFRONT
 10
0.0
 20
0.0
 30
0.0
  9
$PUCSORGBACK
 10
0.0
 20
0.0
 30
0.0
  9
$USERI1
 70
     0
  9
$USERI2
 70
     0
  9
$USERI3
 70
     0
  9
$USERI4
 70
     0
  9
$USERI5
 70
     0
  9
$USERR1
 40
0.0
  9
$USERR2
 40
0.0
  9
$USERR3
 40
0.0
  9
$USERR4
 40
0.0
  9
$USERR5
 40
0.0
  9
$WORLDVIEW
 70
     1
  9
$SHADEDGE
 70
     3
  9
$SHADEDIF
 70
    70
  9
$TILEMODE
 70
     1
  9
$MAXACTVP
 70
    64
  9
$PINSBASE
 10
0.0
 20
0.0
 30
0.0
  9
$PLIMCHECK
 70
     0
  9
$PEXTMIN
 10
28.42471737861632
 20
78.83854968366364
 30
0.0
  9
$PEXTMAX
 10
255.822456407547
 20
115.7661541700303
 30
0.0
  9
$PLIMMIN
 10
-7.14373779296875
 20
-6.805083274841308
  9
$PLIMMAX
 10
289.7822570800781
 20
203.1682443618775
  9
$UNITMODE
 70
     0
  9
$VISRETAIN
 70
     1
  9
$PLINEGEN
 70
     0
  9
$PSLTSCALE
 70
     1
  9
$TREEDEPTH
 70
  3020
  9
$CMLSTYLE
  2
Standard
  9
$CMLJUST
 70
     0
  9
$CMLSCALE
 40
20.0
  9
$PROXYGRAPHICS
 70
     1
  9
$MEASUREMENT
 70
     0
  9
$CELWEIGHT
370
    -1
  9
$ENDCAPS
280
     0
  9
$JOINSTYLE
280
     0
  9
$LWDISPLAY
290
     0
  9
$INSUNITS
 70
     4
  9
$HYPERLINKBASE
  1

  9
$STYLESHEET
  1
acadlt.ctb
  9
$XEDIT
290
     1
  9
$CEPSNTYPE
380
     0
  9
$PSTYLEMODE
290
     1
  9
$FINGERPRINTGUID
  2
{2F90B2FC-4601-4E36-88B7-4817125D4942}
  9
$VERSIONGUID
  2
{E11508C6-3FA3-F54A-B87F-C0534C87B12C}
  9
$EXTNAMES
290
     1
  9
$PSVPSCALE
 40
0.0
  9
$OLESTARTUP
290
     0
  9
$SORTENTS
280
   127
  9
$INDEXCTL
280
     0
  9
$HIDETEXT
280
     1
  9
$XCLIPFRAME
280
     0
  9
$HALOGAP
280
     0
  9
$OBSCOLOR
 70
   257
  9
$OBSLTYPE
280
     0
  9
$INTERSECTIONDISPLAY
280
     0
  9
$INTERSECTIONCOLOR
 70
   257
  9
$DIMASSOC
280
     1
  9
$PROJECTNAME
  1

  9
$CAMERADISPLAY
290
     0
  9
$LENSLENGTH
 40
50.0
  9
$CAMERAHEIGHT
 40
0.0
  9
$STEPSPERSEC
 40
2.0
  9
$STEPSIZE
 40
6.0
  9
$3DDWFPREC
 40
2.0
  9
$PSOLWIDTH
 40
0.25
  9
$PSOLHEIGHT
 40
4.0
  9
$LOFTANG1
 40
1.570796326794896
  9
$LOFTANG2
 40
1.570796326794896
  9
$LOFTMAG1
 40
0.0
  9
$LOFTMAG2
 40
0.0
  9
$LOFTPARAM
 70
     7
  9
$LOFTNORMALS
280
     1
  9
$LATITUDE
 40
37.795
  9
$LONGITUDE
 40
-122.394
  9
$NORTHDIRECTION
 40
0.0
  9
$TIMEZONE
 70
 -8000
  9
$LIGHTGLYPHDISPLAY
280
     1
  9
$TILEMODELIGHTSYNCH
280
     1
  9
$CMATERIAL
347
39
  9
$SOLIDHIST
280
     1
  9
$SHOWHIST
280
     1
  9
$DWFFRAME
280
     2
  9
$DGNFRAME
280
     0
  9
$REALWORLDSCALE
290
     1
  9
$INTERFERECOLOR
 62
     1
  9
$INTERFEREOBJVS
345
4F
  9
$INTERFEREVPVS
346
50
  9
$CSHADOW
280
     0
  9
$SHADOWPLANELOCATION
 40
0.0
  0
ENDSEC
  0
SECTION
  2
CLASSES
  0
CLASS
  1
ACDBDICTIONARYWDFLT
  2
AcDbDictionaryWithDefault
  3
ObjectDBX Classes
 90
        0
 91
        1
280
     0
281
     0
  0
CLASS
  1
DICTIONARYVAR
  2
AcDbDictionaryVar
  3
ObjectDBX Classes
 90
        0
 91
       11
280
     0
281
     0
  0
CLASS
  1
MATERIAL
  2
AcDbMaterial
  3
ObjectDBX Classes
 90
     1153
 91
        3
280
     0
281
     0
  0
CLASS
  1
VISUALSTYLE
  2
AcDbVisualStyle
  3
ObjectDBX Classes
 90
     4095
 91
       26
280
     0
281
     0
  0
CLASS
  1
TABLESTYLE
  2
AcDbTableStyle
  3
ObjectDBX Classes
 90
     4095
 91
        1
280
     0
281
     0
  0
CLASS
  1
SCALE
  2
AcDbScale
  3
ObjectDBX Classes
 90
     1153
 91
       34
280
     0
281
     0
  0
CLASS
  1
MLEADERSTYLE
  2
AcDbMLeaderStyle
  3
ACDB_MLEADERSTYLE_CLASS
 90
     4095
 91
        1
280
     0
281
     0
  0
CLASS
  1
CELLSTYLEMAP
  2
AcDbCellStyleMap
  3
ObjectDBX Classes
 90
     1152
 91
        1
280
     0
281
     0
  0
CLASS
  1
SORTENTSTABLE
  2
AcDbSortentsTable
  3
ObjectDBX Classes
 90
        0
 91
        2
280
     0
281
     0
  0
CLASS
  1
ACAD_EVALUATION_GRAPH
  2
AcDbEvalGraph
  3
ObjectDBX Classes
 90
     1153
 91
        0
280
     0
281
     0
  0
CLASS
  1
ACAECUSTOBJ
  2
AcAeEditorObj
  3
AcAeEditorObj
 90
     1024
 91
        0
280
     1
281
     0
  0
CLASS
  1
ACDB_DYNAMICBLOCKPURGEPREVENTER_VERSION
  2
AcDbDynamicBlockPurgePreventer
  3
ObjectDBX Classes
 90
     1153
 91
        0
280
     0
281
     0
  0
CLASS
  1
ACDB_BLOCKREPRESENTATION_DATA
  2
AcDbBlockRepresentationData
  3
ObjectDBX Classes
 90
     1153
 91
        0
280
     0
281
     0
  0
CLASS
  1
SOLID_BACKGROUND
  2
AcDbSolidBackground
  3
SCENEOE
 90
     4095
 91
        0
280
     0
281
     0
  0
CLASS
  1
NPOCOLLECTION
  2
AcDbImpNonPersistentObjectsCollection
  3
ObjectDBX Classes
 90
     1153
 91
        0
280
     0
281
     0
  0
CLASS
  1
ACDBSECTIONVIEWSTYLE
  2
AcDbSectionViewStyle
  3
ObjectDBX Classes
 90
     1025
 91
        1
280
     0
281
     0
  0
CLASS
  1
ACDBDETAILVIEWSTYLE
  2
AcDbDetailViewStyle
  3
ObjectDBX Classes
 90
     1025
 91
        1
280
     0
281
     0
  0
ENDSEC
  0
SECTION
  2
TABLES
  0
TABLE
  2
VPORT
  5
2E
330
0
100
AcDbSymbolTable
 70
     1
1001
ACAD
1000
DbSaveVer
1071
       56
  0
VPORT
  5
2F
330
2E
100
AcDbSymbolTableRecord
100
AcDbViewportTableRecord
  2
*Active
 70
     0
 10
0.0
 20
0.0
 11
1.0
 21
1.0
 12
302590.8272740584
 22
-14920.67796600833
 13
0.0
 23
0.0
 14
0.01
 24
0.01
 15
10.0
 25
10.0
 16
0.0
 26
0.0
 36
1.0
 17
0.0
 27
0.0
 37
0.0
 40
1172.400972127966
 41
2.070631970260222
 42
50.0
 43
0.0
 44
0.0
 50
0.0
 51
0.0
 71
    16
 72
   100
 73
     1
 74
     2
 75
     0
 76
     0
 77
     0
 78
     0
281
     0
 65
     1
110
0.0
120
0.0
130
0.0
111
1.0
121
0.0
131
0.0
112
0.0
122
1.0
132
0.0
 79
     0
146
0.0
348
30
 60
     3
 61
     5
292
     1
282
     1
141
0.0
142
0.0
 63
   250
421
  3355443
1001
ACAD_NAV_VCDISPLAY
1070
     3
  0
ENDTAB
  0
TABLE
  2
LTYPE
  5
29
330
0
100
AcDbSymbolTable
 70
     4
  0
LTYPE
  5
2A
330
29
100
AcDbSymbolTableRecord
100
AcDbLinetypeTableRecord
  2
ByBlock
 70
     0
  3

 72
    65
 73
     0
 40
0.0
  0
LTYPE
  5
2B
330
29
100
AcDbSymbolTableRecord
100
AcDbLinetypeTableRecord
  2
ByLayer
 70
     0
  3

 72
    65
 73
     0
 40
0.0
  0
LTYPE
  5
15
330
29
100
AcDbSymbolTableRecord
100
AcDbLinetypeTableRecord
  2
Continuous
 70
     0
  3
Solid line
 72
    65
 73
     0
 40
0.0
  0
LTYPE
  5
16E
330
29
100
AcDbSymbolTableRecord
100
AcDbLinetypeTableRecord
  2
0
 70
     0
  3
MEDUSA PEN 0
 72
    65
 73
     0
 40
0.0
  0
LTYPE
  5
A3
330
29
100
AcDbSymbolTableRecord
100
AcDbLinetypeTableRecord
  2
CENTERX2
 70
     0
  3
Center (2x) ________  __  ________  __  _____
 72
    65
 73
     4
 40
4.0
 49
2.5
 74
     0
 49
-0.5
 74
     0
 49
0.5
 74
     0
 49
-0.5
 74
     0
  0
ENDTAB
  0
TABLE
  2
LAYER
  5
20
102
{ACAD_XDICTIONARY
360
21
102
}
330
0
100
AcDbSymbolTable
 70
     5
  0
LAYER
  5
6
102
{ACAD_XDICTIONARY
360
7
102
}
330
20
100
AcDbSymbolTableRecord
100
AcDbLayerTableRecord
  2
0
 70
     0
 62
     7
  6
Continuous
370
    -3
390
9
347
C
348
0
  0
LAYER
  5
C3
330
20
100
AcDbSymbolTableRecord
100
AcDbLayerTableRecord
  2
Defpoints
 70
     0
 62
     7
  6
Continuous
290
     0
370
    -3
390
9
347
C
348
0
  0
LAYER
  5
98
102
{ACAD_XDICTIONARY
360
99
102
}
330
20
100
AcDbSymbolTableRecord
100
AcDbLayerTableRecord
  2
maten
 70
     0
 62
     5
  6
Continuous
370
    -3
390
9
347
C
348
0
  0
LAYER
  5
74
102
{ACAD_XDICTIONARY
360
75
102
}
330
20
100
AcDbSymbolTableRecord
100
AcDbLayerTableRecord
  2
template
 70
     0
 62
     5
  6
Continuous
370
    -3
390
9
347
C
348
0
  0
LAYER
  5
131
330
20
100
AcDbSymbolTableRecord
100
AcDbLayerTableRecord
  2
mousse
 70
     0
 62
     5
  6
Continuous
370
    -3
390
9
347
C
348
0
1001
AcAecLayerStandard
1000

1000

  0
ENDTAB
  0
TABLE
  2
STYLE
  5
26
330
0
100
AcDbSymbolTable
 70
     1
  0
STYLE
  5
27
330
26
100
AcDbSymbolTableRecord
100
AcDbTextStyleTableRecord
  2
Standard
 70
     0
 40
0.0
 41
1.0
 50
0.0
 71
     0
 42
2.5
  3
isocp.shx
  4

  0
ENDTAB
  0
TABLE
  2
VIEW
  5
2C
330
0
100
AcDbSymbolTable
 70
     1
  0
ENDTAB
  0
TABLE
  2
UCS
  5
2D
330
0
100
AcDbSymbolTable
 70
     0
  0
ENDTAB
  0
TABLE
  2
APPID
  5
32
330
0
100
AcDbSymbolTable
 70
    10
  0
APPID
  5
25
330
32
100
AcDbSymbolTableRecord
100
AcDbRegAppTableRecord
  2
ACAD
 70
     0
  0
APPID
  5
138
330
32
100
AcDbSymbolTableRecord
100
AcDbRegAppTableRecord
  2
AcDbBlockRepETag
 70
     0
  0
APPID
  5
132
330
32
100
AcDbSymbolTableRecord
100
AcDbRegAppTableRecord
  2
AcAecLayerStandard
 70
     0
  0
APPID
  5
19
330
32
100
AcDbSymbolTableRecord
100
AcDbRegAppTableRecord
  2
ACAD_PSEXT
 70
     0
  0
APPID
  5
221
330
32
100
AcDbSymbolTableRecord
100
AcDbRegAppTableRecord
  2
ACAD_MLEADERVER
 70
     0
  0
APPID
  5
89C
330
32
100
AcDbSymbolTableRecord
100
AcDbRegAppTableRecord
  2
AcDbDynamicBlockGUID
 70
     0
  0
APPID
  5
89D
330
32
100
AcDbSymbolTableRecord
100
AcDbRegAppTableRecord
  2
ACAD_NAV_VCDISPLAY
 70
     0
  0
APPID
  5
A59
330
32
100
AcDbSymbolTableRecord
100
AcDbRegAppTableRecord
  2
ACAD_EXEMPT_FROM_CAD_STANDARDS
 70
     0
  0
APPID
  5
B40
330
32
100
AcDbSymbolTableRecord
100
AcDbRegAppTableRecord
  2
GradientColor1ACI
 70
     0
  0
APPID
  5
B41
330
32
100
AcDbSymbolTableRecord
100
AcDbRegAppTableRecord
  2
GradientColor2ACI
 70
     0
  0
ENDTAB
  0
TABLE
  2
DIMSTYLE
  5
33
330
0
100
AcDbSymbolTable
 70
     3
100
AcDbDimStyleTable
 71
     1
340
34
  0
DIMSTYLE
105
34
102
{ACAD_REACTORS
330
121
330
9E0
102
}
330
33
100
AcDbSymbolTableRecord
100
AcDbDimStyleTableRecord
  2
ISO-25
 70
     0
 40
4.0
 41
2.5
 42
3.0
 43
3.75
 44
1.25
 77
     1
 78
     8
140
2.5
141
2.5
143
0.03937007874016
147
0.625
171
     3
172
     1
271
     1
272
     1
274
     3
278
    44
283
     0
284
     8
340
27
  0
DIMSTYLE
105
251
330
33
100
AcDbSymbolTableRecord
100
AcDbDimStyleTableRecord
  2
STANDARD
 70
     0
 40
5.0
 41
1.0
 42
1.0
 43
1.0
 44
1.0
 46
1.0
 73
     0
 74
     0
 77
     1
 78
     9
140
1.0
141
1.0
147
1.0
279
     2
284
     9
285
     9
286
     9
340
27
  0
ENDTAB
  0
TABLE
  2
BLOCK_RECORD
  5
1
330
0
100
AcDbSymbolTable
 70
    10
  0
BLOCK_RECORD
  5
2
102
{ACAD_XDICTIONARY
360
3
102
}
330
1
100
AcDbSymbolTableRecord
100
AcDbBlockTableRecord
  2
*Model_Space
340
17
 70
     0
280
     1
281
     0
  0
BLOCK_RECORD
  5
1A
330
1
100
AcDbSymbolTableRecord
100
AcDbBlockTableRecord
  2
*Paper_Space
340
1D
 70
     0
280
     1
281
     0
  0
BLOCK_RECORD
  5
122
330
1
100
AcDbSymbolTableRecord
100
AcDbBlockTableRecord
  2
*D0
340
0
 70
     0
280
     1
281
     0
  0
BLOCK_RECORD
  5
167
102
{ACAD_XDICTIONARY
360
168
102
}
330
1
100
AcDbSymbolTableRecord
100
AcDbBlockTableRecord
  2
vijs 60
340
0
102
{BLKREFS
331
311
102
}
 70
     4
280
     1
281
     1
  0
BLOCK_RECORD
  5
224
330
1
100
AcDbSymbolTableRecord
100
AcDbBlockTableRecord
  2
mousse 60 samenstelling M500 basis 02
340
0
310
2800000020000000200000000100080000000000000400000000000000000000000000000000000000000000000080000080000000808000800000008000800080800000C0C0C000C0DCC000F0CAA6000020400000206000002080000020A0000020C0000020E00000400000004020000040400000406000004080000040A0
310
000040C0000040E00000600000006020000060400000606000006080000060A0000060C0000060E00000800000008020000080400000806000008080000080A0000080C0000080E00000A0000000A0200000A0400000A0600000A0800000A0A00000A0C00000A0E00000C0000000C0200000C0400000C0600000C0800000C0
310
A00000C0C00000C0E00000E0000000E0200000E0400000E0600000E0800000E0A00000E0C00000E0E00040000000400020004000400040006000400080004000A0004000C0004000E00040200000402020004020400040206000402080004020A0004020C0004020E000404000004040200040404000404060004040800040
310
40A0004040C0004040E00040600000406020004060400040606000406080004060A0004060C0004060E00040800000408020004080400040806000408080004080A0004080C0004080E00040A0000040A0200040A0400040A0600040A0800040A0A00040A0C00040A0E00040C0000040C0200040C0400040C0600040C08000
310
40C0A00040C0C00040C0E00040E0000040E0200040E0400040E0600040E0800040E0A00040E0C00040E0E00080000000800020008000400080006000800080008000A0008000C0008000E00080200000802020008020400080206000802080008020A0008020C0008020E00080400000804020008040400080406000804080
310
008040A0008040C0008040E00080600000806020008060400080606000806080008060A0008060C0008060E00080800000808020008080400080806000808080008080A0008080C0008080E00080A0000080A0200080A0400080A0600080A0800080A0A00080A0C00080A0E00080C0000080C0200080C0400080C0600080C0
310
800080C0A00080C0C00080C0E00080E0000080E0200080E0400080E0600080E0800080E0A00080E0C00080E0E000C0000000C0002000C0004000C0006000C0008000C000A000C000C000C000E000C0200000C0202000C0204000C0206000C0208000C020A000C020C000C020E000C0400000C0402000C0404000C0406000C0
310
408000C040A000C040C000C040E000C0600000C0602000C0604000C0606000C0608000C060A000C060C000C060E000C0800000C0802000C0804000C0806000C0808000C080A000C080C000C080E000C0A00000C0A02000C0A04000C0A06000C0A08000C0A0A000C0A0C000C0A0E000C0C00000C0C02000C0C04000C0C06000
310
C0C08000C0C0A000F0FBFF00A4A0A000808080000000FF0000FF000000FFFF00FF000000FF00FF00FFFF0000FFFFFF00FFFFFFFFFFFFFFFFFFFFFFFFFFFFFFFFFFFFFFFFFFFFFFFFFFFFFFFFFFFFFFFFFFFFFFFFFFFFFFFFFFFFFFFFFFFFFCFCFCFCFFFFFFFFFFFFFFFFFFFFFFFFFFFFFFFFFFFFFFFFFFFFFFFFFFFFFFFFFC
310
FCFCFCFFFFFFFFFFFFFFFFFFFFFFFFFFFFFFFFFFFFFFFFFFFFFFFFFFFFFFFFFFFCFCFCFFFFFFFFFFFFFFFFFFFFFFFFFFFFFFFFFFFFFFFFFFFFFFFFFFFFFFFFFFFFFCFCFFFFFFFFFFFFFFFFFFFFFFFFFFFFFFFFFFFFFFFFFFFFFFFFFFFFFFFFFFFCFCFCFFFFFFFFFFFFFFFFFFFFFFFFFFFFFFFFFFFFFFFFFFFFFFFFFFFFFFFF
310
FFFCFCFFFFFFFFFFFFFFFFFFFFFFFFFFFFFFFFFFFFFFFFFFFFFFFFFFFFFFFFFFFFFCFCFFFFFFFFFFFFFFFFFFFFFFFFFFFFFFFFFFFFFFFFFFFFFFFFFFFFFFFFFFFFFCFFFFFFFFFFFFFFFFFFFFFFFFFFFFFFFFFFFFFFFFFFFFFFFFFFFFFFFFFFFFFFFCFFFFFFFFFFFFFFFFFFFFFFFFFFFFFFFFFFFFFFFFFFFFFFFFFFFFFFFFFF
310
FFFFFCFFFFFFFFFFFFFFFFFFFFFFFFFFFFFFFFFFFFFFFFFFFFFFFFFFFFFFFFFFFFFFFCFFFFFFFFFFFFFFFFFFFFFFFFFFFFFFFFFFFFFFFFFFFFFFFFFFFFFFFFFFFFFFFCFFFFFFFFFFFFFFFFFFFFFFFFFFFFFFFFFFFFFFFFFFFFFFFFFFFFFFFFFFFFFFFCFFFFFFFFFFFFFFFFFFFFFFFFFFFFFFFFFFFFFFFFFFFFFFFFFFFFFFFF
310
FFFFFFFCFFFFFFFFFFFFFFFFFFFFFFFFFFFFFFFFFFFFFFFFFFFFFFFFFFFFFFFFFFFFFFFCFFFFFFFFFFFFFFFFFFFFFFFFFFFFFFFFFFFFFFFFFFFFFFFFFFFFFFFFFFFFFFFCFFFFFFFFFFFFFFFFFFFFFFFFFFFFFFFFFFFFFFFFFFFFFFFFFFFFFFFFFFFFFFFCFFFFFFFFFFFFFFFFFFFFFFFFFFFFFFFFFFFFFFFFFFFFFFFFFFFFFF
310
FFFFFFFFFCFFFFFFFFFFFFFFFFFFFFFFFFFFFFFFFFFFFFFFFFFFFFFFFFFFFFFFFFFFFFFFFCFFFFFFFFFFFFFFFFFFFFFFFFFFFFFFFFFFFFFFFFFFFFFFFFFFFFFFFFFFFFFFFCFFFFFFFFFFFFFFFFFFFFFFFFFFFFFFFFFFFFFFFFFFFFFFFFFFFFFFFFFFFFFFFCFFFFFFFFFFFFFFFFFFFFFFFFFFFFFFFFFFFFFFFFFFFFFFFFFFFF
310
FFFFFFFFFFFCFFFFFFFFFFFFFFFFFFFFFFFFFFFFFFFFFFFFFFFFFFFFFFFFFFFFFFFFFFFFFFFCFFFFFFFFFFFFFFFFFFFFFFFFFFFFFFFFFFFFFFFFFFFFFFFFFFFFFFFFFFFFFFFCFCFFFFFFFFFFFFFFFFFFFFFFFFFFFFFFFFFFFFFFFFFFFFFFFFFFFFFFFFFFFFFCFCFCFFFFFFFFFFFFFFFFFFFFFFFFFFFFFFFFFFFFFFFFFFFFFF
310
FFFFFFFFFFFFFCFCFCFFFFFFFFFFFFFFFFFFFFFFFFFFFFFFFFFFFFFFFFFFFFFFFFFFFFFFFFFFFFFCFCFFFFFFFFFFFFFFFFFFFFFFFFFFFFFFFFFFFFFFFFFFFFFFFFFFFFFFFFFCFCFCFCFFFFFFFFFFFFFFFFFFFFFFFFFFFFFFFFFFFFFFFFFFFFFFFFFFFFFFFFFCFCFCFCFFFFFFFFFFFFFFFFFFFFFFFFFFFFFFFFFFFFFFFFFFFF
310
FFFFFFFFFFFFFCFCFCFCFFFFFFFFFFFFFFFFFFFFFFFFFFFFFFFFFFFFFFFFFFFFFFFFFFFFFFFFFFFFFFFFFFFFFFFFFFFFFFFFFFFFFFFFFFFF
102
{BLKREFS
331
260
102
}
 70
     0
280
     1
281
     0
  0
BLOCK_RECORD
  5
236
330
1
100
AcDbSymbolTableRecord
100
AcDbBlockTableRecord
  2
mousse 60 M500 basis 02
340
0
310
2800000020000000200000000100080000000000000400000000000000000000000000000000000000000000000080000080000000808000800000008000800080800000C0C0C000C0DCC000F0CAA6000020400000206000002080000020A0000020C0000020E00000400000004020000040400000406000004080000040A0
310
000040C0000040E00000600000006020000060400000606000006080000060A0000060C0000060E00000800000008020000080400000806000008080000080A0000080C0000080E00000A0000000A0200000A0400000A0600000A0800000A0A00000A0C00000A0E00000C0000000C0200000C0400000C0600000C0800000C0
310
A00000C0C00000C0E00000E0000000E0200000E0400000E0600000E0800000E0A00000E0C00000E0E00040000000400020004000400040006000400080004000A0004000C0004000E00040200000402020004020400040206000402080004020A0004020C0004020E000404000004040200040404000404060004040800040
310
40A0004040C0004040E00040600000406020004060400040606000406080004060A0004060C0004060E00040800000408020004080400040806000408080004080A0004080C0004080E00040A0000040A0200040A0400040A0600040A0800040A0A00040A0C00040A0E00040C0000040C0200040C0400040C0600040C08000
310
40C0A00040C0C00040C0E00040E0000040E0200040E0400040E0600040E0800040E0A00040E0C00040E0E00080000000800020008000400080006000800080008000A0008000C0008000E00080200000802020008020400080206000802080008020A0008020C0008020E00080400000804020008040400080406000804080
310
008040A0008040C0008040E00080600000806020008060400080606000806080008060A0008060C0008060E00080800000808020008080400080806000808080008080A0008080C0008080E00080A0000080A0200080A0400080A0600080A0800080A0A00080A0C00080A0E00080C0000080C0200080C0400080C0600080C0
310
800080C0A00080C0C00080C0E00080E0000080E0200080E0400080E0600080E0800080E0A00080E0C00080E0E000C0000000C0002000C0004000C0006000C0008000C000A000C000C000C000E000C0200000C0202000C0204000C0206000C0208000C020A000C020C000C020E000C0400000C0402000C0404000C0406000C0
310
408000C040A000C040C000C040E000C0600000C0602000C0604000C0606000C0608000C060A000C060C000C060E000C0800000C0802000C0804000C0806000C0808000C080A000C080C000C080E000C0A00000C0A02000C0A04000C0A06000C0A08000C0A0A000C0A0C000C0A0E000C0C00000C0C02000C0C04000C0C06000
310
C0C08000C0C0A000F0FBFF00A4A0A000808080000000FF0000FF000000FFFF00FF000000FF00FF00FFFF0000FFFFFF00FFFFFFFFFFFFFFFFFFFFFFFFFFFFFFFFFFFFFFFFFFFFFFFFFFFFFFFFFFFFFFFFFFFFFFFFFFFFFFFFFFFFFFFFFFFFFFFCFCFCFCFFFFFFFFFFFFFFFFFFFFFFFFFFFFFFFFFFFFFFFFFFFFFFFFFFFFFFFF
310
FCFCFCFCFFFFFFFFFFFFFFFFFFFFFFFFFFFFFFFFFFFFFFFFFFFFFFFFFFFFFFFFFCFCFCFCFFFFFFFFFFFFFFFFFFFFFFFFFFFFFFFFFFFFFFFFFFFFFFFFFFFFFFFCFCFCFCFCFFFFFFFFFFFFFFFFFFFFFFFFFFFFFFFFFFFFFFFFFFFFFFFFFFFFFFFCFCFCFCFCFFFFFFFFFFFFFFFFFFFFFFFFFFFFFFFFFFFFFFFFFFFFFFFFFFFFFC
310
FCFCFCFCFFFFFFFFFFFFFFFFFFFFFFFFFFFFFFFFFFFFFFFFFFFFFFFFFFFFFFFCFCFCFCFCFFFFFFFFFFFFFFFFFFFFFFFFFFFFFFFFFFFFFFFFFFFFFFFFFFFFFFFCFCFCFCFFFFFFFFFFFFFFFFFFFFFFFFFFFFFFFFFFFFFFFFFFFFFFFFFFFFFFFFFCFCFCFCFFFFFFFFFFFFFFFFFFFFFFFFFFFFFFFFFFFFFFFFFFFFFFFFFFFFFFFF
310
FCFCFCFCFFFFFFFFFFFFFFFFFFFFFFFFFFFFFFFFFFFFFFFFFFFFFFFFFFFFFFFFFCFCFCFCFFFFFFFFFFFFFFFFFFFFFFFFFFFFFFFFFFFFFFFFFFFFFFFFFFFFFFFFFCFCFCFCFFFFFFFFFFFFFFFFFFFFFFFFFFFFFFFFFFFFFFFFFFFFFFFFFFFFFFFFFCFCFCFCFFFFFFFFFFFFFFFFFFFFFFFFFFFFFFFFFFFFFFFFFFFFFFFFFFFFFF
310
FFFCFCFCFCFFFFFFFFFFFFFFFFFFFFFFFFFFFFFFFFFFFFFFFFFFFFFFFFFFFFFFFFFCFCFCFCFFFFFFFFFFFFFFFFFFFFFFFFFFFFFFFFFFFFFFFFFFFFFFFFFFFFFFFFFCFCFCFCFFFFFFFFFFFFFFFFFFFFFFFFFFFFFFFFFFFFFFFFFFFFFFFFFFFFFFFFFCFCFCFCFFFFFFFFFFFFFFFFFFFFFFFFFFFFFFFFFFFFFFFFFFFFFFFFFFFF
310
FFFFFCFCFCFCFFFFFFFFFFFFFFFFFFFFFFFFFFFFFFFFFFFFFFFFFFFFFFFFFFFFFFFFFCFCFCFCFFFFFFFFFFFFFFFFFFFFFFFFFFFFFFFFFFFFFFFFFFFFFFFFFFFFFFFFFCFCFCFCFFFFFFFFFFFFFFFFFFFFFFFFFFFFFFFFFFFFFFFFFFFFFFFFFFFFFFFFFCFCFCFCFFFFFFFFFFFFFFFFFFFFFFFFFFFFFFFFFFFFFFFFFFFFFFFFFF
310
FFFFFFFCFCFCFCFFFFFFFFFFFFFFFFFFFFFFFFFFFFFFFFFFFFFFFFFFFFFFFFFFFFFFFFFCFCFCFCFFFFFFFFFFFFFFFFFFFFFFFFFFFFFFFFFFFFFFFFFFFFFFFFFFFFFFFFFCFCFCFCFCFFFFFFFFFFFFFFFFFFFFFFFFFFFFFFFFFFFFFFFFFFFFFFFFFFFFFFFCFCFCFCFCFFFFFFFFFFFFFFFFFFFFFFFFFFFFFFFFFFFFFFFFFFFFFF
310
FFFFFFFFFFFCFCFCFFFCFFFFFFFFFFFFFFFFFFFFFFFFFFFFFFFFFFFFFFFFFFFFFFFFFFFFFFFCFCFCFCFCFFFFFFFFFFFFFFFFFFFFFFFFFFFFFFFFFFFFFFFFFFFFFFFFFFFFFFFFFCFFFCFCFFFFFFFFFFFFFFFFFFFFFFFFFFFFFFFFFFFFFFFFFFFFFFFFFFFFFFFFFCFCFCFCFFFFFFFFFFFFFFFFFFFFFFFFFFFFFFFFFFFFFFFFFF
310
FFFFFFFFFFFFFFFCFCFCFCFFFFFFFFFFFFFFFFFFFFFFFFFFFFFFFFFFFFFFFFFFFFFFFFFFFFFFFFFFFFFFFFFFFFFFFFFFFFFFFFFFFFFFFFFF
102
{BLKREFS
331
9E1
102
}
 70
     0
280
     1
281
     0
  0
BLOCK_RECORD
  5
242
330
1
100
AcDbSymbolTableRecord
100
AcDbBlockTableRecord
  2
P60 1150 EUROBOX def M500 basis 02
340
0
310
2800000020000000200000000100080000000000000400000000000000000000000000000000000000000000000080000080000000808000800000008000800080800000C0C0C000C0DCC000F0CAA6000020400000206000002080000020A0000020C0000020E00000400000004020000040400000406000004080000040A0
310
000040C0000040E00000600000006020000060400000606000006080000060A0000060C0000060E00000800000008020000080400000806000008080000080A0000080C0000080E00000A0000000A0200000A0400000A0600000A0800000A0A00000A0C00000A0E00000C0000000C0200000C0400000C0600000C0800000C0
310
A00000C0C00000C0E00000E0000000E0200000E0400000E0600000E0800000E0A00000E0C00000E0E00040000000400020004000400040006000400080004000A0004000C0004000E00040200000402020004020400040206000402080004020A0004020C0004020E000404000004040200040404000404060004040800040
310
40A0004040C0004040E00040600000406020004060400040606000406080004060A0004060C0004060E00040800000408020004080400040806000408080004080A0004080C0004080E00040A0000040A0200040A0400040A0600040A0800040A0A00040A0C00040A0E00040C0000040C0200040C0400040C0600040C08000
310
40C0A00040C0C00040C0E00040E0000040E0200040E0400040E0600040E0800040E0A00040E0C00040E0E00080000000800020008000400080006000800080008000A0008000C0008000E00080200000802020008020400080206000802080008020A0008020C0008020E00080400000804020008040400080406000804080
310
008040A0008040C0008040E00080600000806020008060400080606000806080008060A0008060C0008060E00080800000808020008080400080806000808080008080A0008080C0008080E00080A0000080A0200080A0400080A0600080A0800080A0A00080A0C00080A0E00080C0000080C0200080C0400080C0600080C0
310
800080C0A00080C0C00080C0E00080E0000080E0200080E0400080E0600080E0800080E0A00080E0C00080E0E000C0000000C0002000C0004000C0006000C0008000C000A000C000C000C000E000C0200000C0202000C0204000C0206000C0208000C020A000C020C000C020E000C0400000C0402000C0404000C0406000C0
310
408000C040A000C040C000C040E000C0600000C0602000C0604000C0606000C0608000C060A000C060C000C060E000C0800000C0802000C0804000C0806000C0808000C080A000C080C000C080E000C0A00000C0A02000C0A04000C0A06000C0A08000C0A0A000C0A0C000C0A0E000C0C00000C0C02000C0C04000C0C06000
310
C0C08000C0C0A000F0FBFF00A4A0A000808080000000FF0000FF000000FFFF00FF000000FF00FF00FFFF0000FFFFFF00FFFFFFFFFFFFFFFFFFFFFFFFFFFFFFFFFFFFFFFFFFFFFFFFFFFFFFFFFFFFFFFFFFFFFFFFFFFFFFFFFFFFFFFFFFFFFFFFFFFFFFFFFFFFFFFFFFFFFFFFFFFFFFFFFFFFFFFFFFFFFFFFFFFFFFFFFFFFFF
310
FFFFFFFFFFFFFFFFFFFFFFFFFFFFFFFFFFFFFFFFFFFFFFFFFFFFFFFFFFFFFFFFFFFFFFFFFFFFFFFFFFFFFFFFFFFFFFFFFFFFFFFFFFFFFFFFFFFFFFFFFFFFFFFFFFFFFFFFFFFFFFFFFFFFFFFFFFFFFFFFFFFFFFFFFFFFFFFFFFFFFFFFFFFFFFFFFFFFFFFFFFFFFFFFFFFFFFFFFFFFFFFFFFFFFFFFFFFFFFFFFFFFFFFFFFFFFF
310
FFFFFFFFFFFFFFFFFFFFFFFFFFFFFFFFFFFFFFFFFFFFFFFFFFFFFFFFFFFFFFFFFFFFFFFFFFFFFFFFFFFFFFFFFFFFFFFFFFFFFFFFFFFFFFFFFFFFFFFFFFFFFFFFFFFFFFFFFFFFFFFFFFFFFFFFFFFFFFFFFFFFFFFFFFFFFFFFFFFFFFFFFFFFFFFFFFFFFFFFFFFFFFFFFFFFFFFFFFFFFFFFFFFFFFFFFFFFFFFFFFFFFFFFFFFFFF
310
FFFFFFFFFFFFFFFFFFFFFFFFFFFFFFFFFFFFFFFFFFFFFFFFFFFFFFFFFFFFFFFFFFFFFFFFFFFFFFFFFFFFFFFFFFFFFFFFFFFFFFFFFFFFFFFFFFFFFFFFFFFFFFFFFFFFFFFFFFFFFFFFFFFFFFFFFFFFFFFFFFFFFFFFFFFFFFFFFFFFFFFFFFFFFFFFFFFFFFFFFFFFFFFFFFFFFFFFFFFFFFFFFFFFFFFFFFFFFFFFFFFFFFFFFFFFFF
310
FFFFFFFFFFFFFFFFFFFFFFFFFFFFFFFFFFFFFFFFFFFF0000000000000000000000000000000000000000000000000000000000FFFFFF0000000000000000000000000000000000000000000000000000000000FFFFFFFFFFFFFFFFFFFFFFFFFFFFFFFFFFFFFFFFFFFFFFFFFFFFFFFFFFFFFFFFFFFFFFFFFFFFFFFFFFFFFFFF
310
FFFFFFFFFFFFFFFFFFFFFFFFFFFFFFFFFFFFFFFFFFFFFFFFFFFFFFFFFFFFFFFFFFFFFFFFFFFFFFFFFFFFFFFFFFFFFFFFFFFFFFFFFFFFFFFFFFFFFFFFFFFFFFFFFFFFFFFFFFFFFFFFFFFFFFFFFFFFFFFFFFFFFFFFFFFFFFFFFFFFFFFFFFFFFFFFFFFFFFFFFFFFFFFFFFFFFFFFFFFFFFFFFFFFFFFFFFFFFFFFFFFFFFFFFFFFFF
310
FFFFFFFFFFFFFFFFFFFFFFFFFFFFFFFFFFFFFFFFFFFFFFFFFFFFFFFFFFFFFFFFFFFFFFFFFFFFFFFFFFFFFFFFFFFFFFFFFFFFFFFFFFFFFFFFFFFFFFFFFFFFFFFFFFFFFFFFFFFFFFFFFFFFFFFFFFFFFFFFFFFFFFFFFFFFFFFFFFFFFFFFFFFFFFFFFFFFFFFFFFFFFFFFFFFFFFFFFFFFFFFFFFFFFFFFFFFFFFFFFFFFFFFFFFFFFF
310
FFFFFFFFFFFFFFFFFFFFFFFFFFFFFFFFFFFFFFFFFFFFFFFFFFFFFFFFFFFFFFFFFFFFFFFFFFFFFFFFFFFFFFFFFFFFFFFFFFFFFFFFFFFFFFFFFFFFFFFFFFFFFFFFFFFFFFFFFFFFFFFFFFFFFFFFFFFFFFFFFFFFFFFFFFFFFFFFFFFFFFFFFFFFFFFFFFFFFFFFFFFFFFFFFFFFFFFFFFFFFFFFFFFFFFFFFFFFFFFFFFFFFFFFFFFFFF
310
FFFFFFFFFFFFFFFFFFFFFFFFFFFFFFFFFFFFFFFFFFFFFFFFFFFFFFFFFFFFFFFFFFFFFFFFFFFFFFFFFFFFFFFFFFFFFFFFFFFFFFFFFFFFFFFF
 70
     0
280
     1
281
     0
  0
BLOCK_RECORD
  5
816
330
1
100
AcDbSymbolTableRecord
100
AcDbBlockTableRecord
  2
Vijs
340
0
310
2800000020000000200000000100080000000000000400000000000000000000000000000000000000000000000080000080000000808000800000008000800080800000C0C0C000C0DCC000F0CAA6000020400000206000002080000020A0000020C0000020E00000400000004020000040400000406000004080000040A0
310
000040C0000040E00000600000006020000060400000606000006080000060A0000060C0000060E00000800000008020000080400000806000008080000080A0000080C0000080E00000A0000000A0200000A0400000A0600000A0800000A0A00000A0C00000A0E00000C0000000C0200000C0400000C0600000C0800000C0
310
A00000C0C00000C0E00000E0000000E0200000E0400000E0600000E0800000E0A00000E0C00000E0E00040000000400020004000400040006000400080004000A0004000C0004000E00040200000402020004020400040206000402080004020A0004020C0004020E000404000004040200040404000404060004040800040
310
40A0004040C0004040E00040600000406020004060400040606000406080004060A0004060C0004060E00040800000408020004080400040806000408080004080A0004080C0004080E00040A0000040A0200040A0400040A0600040A0800040A0A00040A0C00040A0E00040C0000040C0200040C0400040C0600040C08000
310
40C0A00040C0C00040C0E00040E0000040E0200040E0400040E0600040E0800040E0A00040E0C00040E0E00080000000800020008000400080006000800080008000A0008000C0008000E00080200000802020008020400080206000802080008020A0008020C0008020E00080400000804020008040400080406000804080
310
008040A0008040C0008040E00080600000806020008060400080606000806080008060A0008060C0008060E00080800000808020008080400080806000808080008080A0008080C0008080E00080A0000080A0200080A0400080A0600080A0800080A0A00080A0C00080A0E00080C0000080C0200080C0400080C0600080C0
310
800080C0A00080C0C00080C0E00080E0000080E0200080E0400080E0600080E0800080E0A00080E0C00080E0E000C0000000C0002000C0004000C0006000C0008000C000A000C000C000C000E000C0200000C0202000C0204000C0206000C0208000C020A000C020C000C020E000C0400000C0402000C0404000C0406000C0
310
408000C040A000C040C000C040E000C0600000C0602000C0604000C0606000C0608000C060A000C060C000C060E000C0800000C0802000C0804000C0806000C0808000C080A000C080C000C080E000C0A00000C0A02000C0A04000C0A06000C0A08000C0A0A000C0A0C000C0A0E000C0C00000C0C02000C0C04000C0C06000
310
C0C08000C0C0A000F0FBFF00A4A0A000808080000000FF0000FF000000FFFF00FF000000FF00FF00FFFF0000FFFFFF00000000000000000000000000000000000000000000000000000000000000000000000000000000000000000000000000FF000000000000000000000000000000000000000000000000000000000000
310
FFFF000000000000000000000000000000000000000000000000000000000000FFFF000000000000000000000000000000000000000000000000000000000000FFFF000000000000000000000000000000000000000000000000000000000000FFFF0000000000000000000000000000000000000000000000000000000000
310
00FFFF000000000000000000000000000000000000000000000000000000000000FFFF000000000000000000000000000000000000000000000000000000000000FFFF000000000000000000000000000000000000000000000000000000000000FFFF00000000000000000000000000000000000000000000000000000000
310
0000FFFF000000000000000000000000000000000000000000000000000000000000FFFF000000000000000000000000000000000000000000000000000000000000FFFF000000000000000000000000000000000000000000000000000000000000FFFF000000000000000000000000000000000000000000000000000000
310
000000FFFF000000000000000000000000000000000000000000000000000000000000FFFF000000000000000000000000000000000000000000000000000000000000FFFF000000000000000000000000000000000000000000000000000000000000FFFF0000000000000000000000000000000000000000000000000000
310
00000000FFFF000000000000000000000000000000000000000000000000000000000000FFFF000000000000000000000000000000000000000000000000000000000000FFFF000000000000000000000000000000000000000000000000000000000000FFFF00000000000000000000000000000000000000000000000000
310
0000000000FFFF000000000000000000000000000000000000000000000000000000000000FFFF000000000000000000000000000000000000000000000000000000000000FFFF000000000000000000000000000000000000000000000000000000000000FFFF000000000000000000000000000000000000000000000000
310
00000000FFFFFFFFFFFF00000000000000000000000000000000000000000000000000FFFFFFFFFFFFFFFF00000000000000000000000000000000000000000000000000FFFFFFFFFFFF0000000000000000000000000000000000000000000000000000FFFFFFFFFFFF000000000000000000000000000000000000000000
310
000000000000FFFFFFFF00000000000000000000000000000000000000000000000000000000000000000000000000000000000000000000
 70
     4
280
     1
281
     1
1001
AcDbDynamicBlockGUID
1000
{B0F303A3-1D30-4193-8FF0-83AE78117F61}
1001
AcDbBlockRepETag
1070
     1
1071
      102
  0
BLOCK_RECORD
  5
87F
330
1
100
AcDbSymbolTableRecord
100
AcDbBlockTableRecord
  2
mousse 40 M500 basis 02
340
0
310
2800000020000000200000000100080000000000000400000000000000000000000000000000000000000000000080000080000000808000800000008000800080800000C0C0C000C0DCC000F0CAA6000020400000206000002080000020A0000020C0000020E00000400000004020000040400000406000004080000040A0
310
000040C0000040E00000600000006020000060400000606000006080000060A0000060C0000060E00000800000008020000080400000806000008080000080A0000080C0000080E00000A0000000A0200000A0400000A0600000A0800000A0A00000A0C00000A0E00000C0000000C0200000C0400000C0600000C0800000C0
310
A00000C0C00000C0E00000E0000000E0200000E0400000E0600000E0800000E0A00000E0C00000E0E00040000000400020004000400040006000400080004000A0004000C0004000E00040200000402020004020400040206000402080004020A0004020C0004020E000404000004040200040404000404060004040800040
310
40A0004040C0004040E00040600000406020004060400040606000406080004060A0004060C0004060E00040800000408020004080400040806000408080004080A0004080C0004080E00040A0000040A0200040A0400040A0600040A0800040A0A00040A0C00040A0E00040C0000040C0200040C0400040C0600040C08000
310
40C0A00040C0C00040C0E00040E0000040E0200040E0400040E0600040E0800040E0A00040E0C00040E0E00080000000800020008000400080006000800080008000A0008000C0008000E00080200000802020008020400080206000802080008020A0008020C0008020E00080400000804020008040400080406000804080
310
008040A0008040C0008040E00080600000806020008060400080606000806080008060A0008060C0008060E00080800000808020008080400080806000808080008080A0008080C0008080E00080A0000080A0200080A0400080A0600080A0800080A0A00080A0C00080A0E00080C0000080C0200080C0400080C0600080C0
310
800080C0A00080C0C00080C0E00080E0000080E0200080E0400080E0600080E0800080E0A00080E0C00080E0E000C0000000C0002000C0004000C0006000C0008000C000A000C000C000C000E000C0200000C0202000C0204000C0206000C0208000C020A000C020C000C020E000C0400000C0402000C0404000C0406000C0
310
408000C040A000C040C000C040E000C0600000C0602000C0604000C0606000C0608000C060A000C060C000C060E000C0800000C0802000C0804000C0806000C0808000C080A000C080C000C080E000C0A00000C0A02000C0A04000C0A06000C0A08000C0A0A000C0A0C000C0A0E000C0C00000C0C02000C0C04000C0C06000
310
C0C08000C0C0A000F0FBFF00A4A0A000808080000000FF0000FF000000FFFF00FF000000FF00FF00FFFF0000FFFFFF00FFFFFFFFFFFFFFFFFFFFFFFFFFFFFFFFFFFFFFFFFFFFFFFFFFFFFFFFFFFFFFFFFFFFFFFFFFFFFFFFFFFFFFFFFFFFFCFCFCFCFCFCFCFFFFFFFFFFFFFFFFFFFFFFFFFFFFFFFFFFFFFFFFFFFFFFFFFFFC
310
FFFCFFFCFFFCFFFFFFFFFFFFFFFFFFFFFFFFFFFFFFFFFFFFFFFFFFFFFFFFFFFCFCFFFCFFFCFCFFFFFFFFFFFFFFFFFFFFFFFFFFFFFFFFFFFFFFFFFFFFFFFFFFFCFCFCFCFFFCFCFFFFFFFFFFFFFFFFFFFFFFFFFFFFFFFFFFFFFFFFFFFFFFFFFFFCFCFCFFFCFFFCFFFFFFFFFFFFFFFFFFFFFFFFFFFFFFFFFFFFFFFFFFFFFFFFFC
310
FCFCFFFCFCFCFCFFFFFFFFFFFFFFFFFFFFFFFFFFFFFFFFFFFFFFFFFFFFFFFFFCFCFFFCFFFCFCFCFFFFFFFFFFFFFFFFFFFFFFFFFFFFFFFFFFFFFFFFFFFFFFFFFCFFFCFFFCFFFCFCFFFFFFFFFFFFFFFFFFFFFFFFFFFFFFFFFFFFFFFFFFFFFFFCFFFCFFFCFFFCFCFFFFFFFFFFFFFFFFFFFFFFFFFFFFFFFFFFFFFFFFFFFFFFFFFC
310
FCFFFCFFFCFFFCFFFFFFFFFFFFFFFFFFFFFFFFFFFFFFFFFFFFFFFFFFFFFFFCFCFFFCFCFCFFFCFFFFFFFFFFFFFFFFFFFFFFFFFFFFFFFFFFFFFFFFFFFFFFFFFCFCFCFFFCFCFCFCFFFFFFFFFFFFFFFFFFFFFFFFFFFFFFFFFFFFFFFFFFFFFFFFFCFCFCFFFCFCFCFFFFFFFFFFFFFFFFFFFFFFFFFFFFFFFFFFFFFFFFFFFFFFFFFFFC
310
FFFCFCFCFFFCFFFFFFFFFFFFFFFFFFFFFFFFFFFFFFFFFFFFFFFFFFFFFFFFFFFCFCFCFCFCFCFCFFFFFFFFFFFFFFFFFFFFFFFFFFFFFFFFFFFFFFFFFFFFFFFFFFFCFCFCFCFCFCFCFFFFFFFFFFFFFFFFFFFFFFFFFFFFFFFFFFFFFFFFFFFFFFFFFFFCFFFCFCFCFFFCFFFFFFFFFFFFFFFFFFFFFFFFFFFFFFFFFFFFFFFFFFFFFFFFFF
310
FCFCFCFCFCFCFCFFFFFFFFFFFFFFFFFFFFFFFFFFFFFFFFFFFFFFFFFFFFFFFFFFFCFCFCFFFCFCFCFCFFFFFFFFFFFFFFFFFFFFFFFFFFFFFFFFFFFFFFFFFFFFFFFFFCFCFFFCFCFCFFFCFFFFFFFFFFFFFFFFFFFFFFFFFFFFFFFFFFFFFFFFFFFFFFFFFFFCFCFFFCFFFCFFFCFFFFFFFFFFFFFFFFFFFFFFFFFFFFFFFFFFFFFFFFFFFF
310
FFFFFCFFFCFFFCFFFCFCFFFFFFFFFFFFFFFFFFFFFFFFFFFFFFFFFFFFFFFFFFFFFFFFFFFCFFFCFFFCFFFCFCFFFFFFFFFFFFFFFFFFFFFFFFFFFFFFFFFFFFFFFFFFFFFFFFFCFCFFFCFFFCFCFCFFFFFFFFFFFFFFFFFFFFFFFFFFFFFFFFFFFFFFFFFFFFFFFFFCFCFCFFFCFCFCFCFFFFFFFFFFFFFFFFFFFFFFFFFFFFFFFFFFFFFFFF
310
FFFFFFFFFFFCFCFCFCFCFFFCFFFFFFFFFFFFFFFFFFFFFFFFFFFFFFFFFFFFFFFFFFFFFFFFFFFCFCFCFFFCFCFCFFFFFFFFFFFFFFFFFFFFFFFFFFFFFFFFFFFFFFFFFFFFFFFFFFFCFCFFFCFFFCFCFFFFFFFFFFFFFFFFFFFFFFFFFFFFFFFFFFFFFFFFFFFFFFFFFFFCFFFCFFFCFFFCFFFFFFFFFFFFFFFFFFFFFFFFFFFFFFFFFFFFFF
310
FFFFFFFFFFFFFCFCFCFCFCFCFCFFFFFFFFFFFFFFFFFFFFFFFFFFFFFFFFFFFFFFFFFFFFFFFFFFFFFFFFFFFFFFFFFFFFFFFFFFFFFFFFFFFFFF
 70
     0
280
     1
281
     0
  0
BLOCK_RECORD
  5
88B
330
1
100
AcDbSymbolTableRecord
100
AcDbBlockTableRecord
  2
mousse 40 samenstelling M500 basis 02
340
0
310
2800000020000000200000000100080000000000000400000000000000000000000000000000000000000000000080000080000000808000800000008000800080800000C0C0C000C0DCC000F0CAA6000020400000206000002080000020A0000020C0000020E00000400000004020000040400000406000004080000040A0
310
000040C0000040E00000600000006020000060400000606000006080000060A0000060C0000060E00000800000008020000080400000806000008080000080A0000080C0000080E00000A0000000A0200000A0400000A0600000A0800000A0A00000A0C00000A0E00000C0000000C0200000C0400000C0600000C0800000C0
310
A00000C0C00000C0E00000E0000000E0200000E0400000E0600000E0800000E0A00000E0C00000E0E00040000000400020004000400040006000400080004000A0004000C0004000E00040200000402020004020400040206000402080004020A0004020C0004020E000404000004040200040404000404060004040800040
310
40A0004040C0004040E00040600000406020004060400040606000406080004060A0004060C0004060E00040800000408020004080400040806000408080004080A0004080C0004080E00040A0000040A0200040A0400040A0600040A0800040A0A00040A0C00040A0E00040C0000040C0200040C0400040C0600040C08000
310
40C0A00040C0C00040C0E00040E0000040E0200040E0400040E0600040E0800040E0A00040E0C00040E0E00080000000800020008000400080006000800080008000A0008000C0008000E00080200000802020008020400080206000802080008020A0008020C0008020E00080400000804020008040400080406000804080
310
008040A0008040C0008040E00080600000806020008060400080606000806080008060A0008060C0008060E00080800000808020008080400080806000808080008080A0008080C0008080E00080A0000080A0200080A0400080A0600080A0800080A0A00080A0C00080A0E00080C0000080C0200080C0400080C0600080C0
310
800080C0A00080C0C00080C0E00080E0000080E0200080E0400080E0600080E0800080E0A00080E0C00080E0E000C0000000C0002000C0004000C0006000C0008000C000A000C000C000C000E000C0200000C0202000C0204000C0206000C0208000C020A000C020C000C020E000C0400000C0402000C0404000C0406000C0
310
408000C040A000C040C000C040E000C0600000C0602000C0604000C0606000C0608000C060A000C060C000C060E000C0800000C0802000C0804000C0806000C0808000C080A000C080C000C080E000C0A00000C0A02000C0A04000C0A06000C0A08000C0A0A000C0A0C000C0A0E000C0C00000C0C02000C0C04000C0C06000
310
C0C08000C0C0A000F0FBFF00A4A0A000808080000000FF0000FF000000FFFF00FF000000FF00FF00FFFF0000FFFFFF00FFFFFFFFFFFFFFFFFFFFFFFFFFFFFFFFFFFFFFFFFFFFFFFFFFFFFFFFFFFFFFFFFFFFFFFFFFFFFFFFFFFFFFFFFCFCFCFCFCFCFCFFFFFFFFFFFFFFFFFFFFFFFFFFFFFFFFFFFFFFFFFFFFFFFFFFFCFCFC
310
FFFCFFFCFCFFFFFFFFFFFFFFFFFFFFFFFFFFFFFFFFFFFFFFFFFFFFFFFFFCFCFCFCFFFCFFFCFFFFFFFFFFFFFFFFFFFFFFFFFFFFFFFFFFFFFFFFFFFFFFFFFFFFFCFCFCFFFCFCFFFFFFFFFFFFFFFFFFFFFFFFFFFFFFFFFFFFFFFFFFFFFFFFFFFFFFFFFCFCFCFCFFFFFFFFFFFFFFFFFFFFFFFFFFFFFFFFFFFFFFFFFFFFFFFFFFFF
310
FFFFFCFCFFFCFFFFFFFFFFFFFFFFFFFFFFFFFFFFFFFFFFFFFFFFFFFFFFFFFFFFFFFCFFFFFCFCFFFFFFFFFFFFFFFFFFFFFFFFFFFFFFFFFFFFFFFFFFFFFFFFFFFFFFFCFFFCFCFFFFFFFFFFFFFFFFFFFFFFFFFFFFFFFFFFFFFFFFFFFFFFFFFFFFFFFCFCFCFFFCFFFFFFFFFFFFFFFFFFFFFFFFFFFFFFFFFFFFFFFFFFFFFFFFFFFF
310
FFFCFCFFFCFFFFFFFFFFFFFFFFFFFFFFFFFFFFFFFFFFFFFFFFFFFFFFFFFFFFFFFFFCFCFCFCFFFFFFFFFFFFFFFFFFFFFFFFFFFFFFFFFFFFFFFFFFFFFFFFFFFFFFFFFCFCFCFFFFFFFFFFFFFFFFFFFFFFFFFFFFFFFFFFFFFFFFFFFFFFFFFFFFFFFFFFFCFCFCFFFFFFFFFFFFFFFFFFFFFFFFFFFFFFFFFFFFFFFFFFFFFFFFFFFFFF
310
FFFFFCFCFFFFFFFFFFFFFFFFFFFFFFFFFFFFFFFFFFFFFFFFFFFFFFFFFFFFFFFFFFFFFCFCFFFFFFFFFFFFFFFFFFFFFFFFFFFFFFFFFFFFFFFFFFFFFFFFFFFFFFFFFFFFFCFCFFFFFFFFFFFFFFFFFFFFFFFFFFFFFFFFFFFFFFFFFFFFFFFFFFFFFFFFFFFFFCFCFFFFFFFFFFFFFFFFFFFFFFFFFFFFFFFFFFFFFFFFFFFFFFFFFFFFFF
310
FFFFFFFCFCFCFFFFFFFFFFFFFFFFFFFFFFFFFFFFFFFFFFFFFFFFFFFFFFFFFFFFFFFFFFFCFCFCFFFFFFFFFFFFFFFFFFFFFFFFFFFFFFFFFFFFFFFFFFFFFFFFFFFFFFFFFFFCFCFCFCFFFFFFFFFFFFFFFFFFFFFFFFFFFFFFFFFFFFFFFFFFFFFFFFFFFFFFFFFCFCFFFCFFFFFFFFFFFFFFFFFFFFFFFFFFFFFFFFFFFFFFFFFFFFFFFF
310
FFFFFFFFFCFCFCFFFCFFFFFFFFFFFFFFFFFFFFFFFFFFFFFFFFFFFFFFFFFFFFFFFFFFFFFFFFFCFFFCFCFFFFFFFFFFFFFFFFFFFFFFFFFFFFFFFFFFFFFFFFFFFFFFFFFFFFFFFFFCFFFFFCFCFFFFFFFFFFFFFFFFFFFFFFFFFFFFFFFFFFFFFFFFFFFFFFFFFFFFFFFFFCFCFFFCFFFFFFFFFFFFFFFFFFFFFFFFFFFFFFFFFFFFFFFFFF
310
FFFFFFFFFFFFFFFCFCFFFCFFFFFFFFFFFFFFFFFFFFFFFFFFFFFFFFFFFFFFFFFFFFFFFFFFFFFCFCFCFFFCFCFFFFFFFFFFFFFFFFFFFFFFFFFFFFFFFFFFFFFFFFFFFFFFFFFCFCFCFCFFFCFFFCFFFFFFFFFFFFFFFFFFFFFFFFFFFFFFFFFFFFFFFFFFFFFFFFFCFCFCFFFCFFFCFCFFFFFFFFFFFFFFFFFFFFFFFFFFFFFFFFFFFFFFFF
310
FFFFFFFFFCFCFCFCFCFCFCFFFFFFFFFFFFFFFFFFFFFFFFFFFFFFFFFFFFFFFFFFFFFFFFFFFFFFFFFFFFFFFFFFFFFFFFFFFFFFFFFFFFFFFFFF
 70
     0
280
     1
281
     0
  0
BLOCK_RECORD
  5
9EE
330
1
100
AcDbSymbolTableRecord
100
AcDbBlockTableRecord
  2
*D8
340
0
 70
     0
280
     1
281
     0
  0
ENDTAB
  0
ENDSEC
  0
SECTION
  2
BLOCKS
  0
BLOCK
  5
5
330
2
100
AcDbEntity
  8
0
100
AcDbBlockBegin
  2
*Model_Space
 70
     0
 10
0.0
 20
0.0
 30
0.0
  3
*Model_Space
  1

  0
ENDBLK
  5
16
330
2
100
AcDbEntity
  8
0
100
AcDbBlockEnd
  0
BLOCK
  5
1B
330
1A
100
AcDbEntity
 67
     1
  8
0
100
AcDbBlockBegin
  2
*Paper_Space
 70
     0
 10
0.0
 20
0.0
 30
0.0
  3
*Paper_Space
  1

  0
ENDBLK
  5
1C
330
1A
100
AcDbEntity
 67
     1
  8
0
100
AcDbBlockEnd
  0
BLOCK
  5
123
330
122
100
AcDbEntity
  8
0
100
AcDbBlockBegin
  2
*D0
 70
     1
 10
0.0
 20
0.0
 30
0.0
  3
*D0
  1

  0
LINE
  5
124
330
122
100
AcDbEntity
  8
maten
 62
     0
440
 16777216
370
    -2
100
AcDbLine
 10
301850.702610164
 20
-14977.91252944603
 30
0.0
 11
301850.702610164
 21
-14919.56835772887
 31
0.0
  0
LINE
  5
125
330
122
100
AcDbEntity
  8
maten
 62
     0
440
 16777216
370
    -2
100
AcDbLine
 10
303000.7026101639
 20
-14977.91252944603
 30
0.0
 11
303000.7026101639
 21
-14919.56835772887
 31
0.0
  0
LINE
  5
126
330
122
100
AcDbEntity
  8
maten
 62
     0
440
 16777216
370
    -2
100
AcDbLine
 10
301875.7026101639
 20
-14932.06835772887
 30
0.0
 11
302975.7026101639
 21
-14932.06835772887
 31
0.0
  0
SOLID
  5
127
330
122
100
AcDbEntity
  8
maten
 62
     0
440
 16777216
100
AcDbTrace
 10
301875.7026101639
 20
-14927.9016910622
 30
0.0
 11
301875.7026101639
 21
-14936.23502439553
 31
0.0
 12
301850.702610164
 22
-14932.06835772887
 32
0.0
 13
301850.702610164
 23
-14932.06835772887
 33
0.0
  0
SOLID
  5
128
330
122
100
AcDbEntity
  8
maten
 62
     0
440
 16777216
100
AcDbTrace
 10
302975.7026101639
 20
-14936.23502439553
 30
0.0
 11
302975.7026101639
 21
-14927.9016910622
 31
0.0
 12
303000.7026101639
 22
-14932.06835772887
 32
0.0
 13
303000.7026101639
 23
-14932.06835772887
 33
0.0
  0
MTEXT
  5
129
330
122
100
AcDbEntity
  8
maten
 62
     0
440
 16777216
100
AcDbMText
 10
302400.7026101639
 20
-14913.31835772887
 30
0.0
 40
25.0
 41
0.0
 46
0.0
 71
     5
 72
     1
  1
1150
 73
     1
 44
1.0
  0
POINT
  5
12A
330
122
100
AcDbEntity
  8
Defpoints
 62
     0
440
 16777216
100
AcDbPoint
 10
301850.702610164
 20
-15007.91252944603
 30
0.0
  0
POINT
  5
12B
330
122
100
AcDbEntity
  8
Defpoints
 62
     0
440
 16777216
100
AcDbPoint
 10
303000.7026101639
 20
-15007.91252944603
 30
0.0
  0
POINT
  5
12C
330
122
100
AcDbEntity
  8
Defpoints
 62
     0
440
 16777216
100
AcDbPoint
 10
303000.7026101639
 20
-14932.06835772887
 30
0.0
  0
ENDBLK
  5
12D
330
122
100
AcDbEntity
  8
0
100
AcDbBlockEnd
  0
BLOCK
  5
16A
330
167
100
AcDbEntity
  8
0
100
AcDbBlockBegin
  2
vijs 60
 70
     0
 10
0.0
 20
0.0
 30
0.0
  3
vijs 60
  1

  0
LINE
  5
16B
330
167
100
AcDbEntity
  8
0
100
AcDbLine
 10
3.842106180265545
 20
0.0
 30
0.0
 11
3.600057449948508
 21
-144.0354989657789
 31
0.0
1001
AcDbBlockRepETag
1070
     1
1071
        0
1005
16B
  0
LINE
  5
16C
330
167
100
AcDbEntity
  8
0
100
AcDbLine
 10
-3.842600807663984
 20
0.0
 30
0.0
 11
-3.599999999976716
 21
-143.5858527735254
 31
0.0
1001
AcDbBlockRepETag
1070
     1
1071
        1
1005
16C
  0
LINE
  5
16D
330
167
100
AcDbEntity
  8
0
  6
0
 62
     7
100
AcDbLine
 10
-3.600005744898226
 20
-144.9354729800107
 30
0.0
 11
3.600057449948508
 21
-144.0354989657789
 31
0.0
1001
AcDbBlockRepETag
1070
     1
1071
       64
1005
16D
  0
LINE
  5
16F
330
167
100
AcDbEntity
  8
0
  6
0
 62
     7
100
AcDbLine
 10
-3.599999999976716
 20
-143.5858527735254
 30
0.0
 11
-3.600005744898226
 21
-144.9354729800107
 31
0.0
1001
AcDbBlockRepETag
1070
     1
1071
       65
1005
16F
  0
LINE
  5
170
330
167
100
AcDbEntity
  8
0
  6
0
 62
     7
100
AcDbLine
 10
3.600057449948508
 20
-144.0354989657789
 30
0.0
 11
4.500024690583813
 21
-144.9355755876022
 31
0.0
1001
AcDbBlockRepETag
1070
     1
1071
       66
1005
170
  0
LINE
  5
171
330
167
100
AcDbEntity
  8
0
  6
0
 62
     7
100
AcDbLine
 10
-3.599688452901318
 20
-168.335667913605
 30
0.0
 11
-3.599688452901318
 21
-181.8362097352073
 31
0.0
1001
AcDbBlockRepETag
1070
     1
1071
        4
1005
171
  0
LINE
  5
172
330
167
100
AcDbEntity
  8
0
  6
0
 62
     7
100
AcDbLine
 10
4.500373222632333
 20
-170.1347857077198
 30
0.0
 11
3.600286412227433
 21
-169.236144113107
 31
0.0
1001
AcDbBlockRepETag
1070
     1
1071
       10
1005
172
  0
LINE
  5
173
330
167
100
AcDbEntity
  8
0
  6
0
 62
     7
100
AcDbLine
 10
0.4503380749956705
 20
-170.5848471367062
 30
0.0
 11
3.600286412227433
 21
-169.236144113107
 31
0.0
1001
AcDbBlockRepETag
1070
     1
1071
       14
1005
173
  0
LWPOLYLINE
  5
174
330
167
100
AcDbEntity
  8
0
  6
0
 62
     7
100
AcDbPolyline
 90
        2
 70
     0
 43
0.0
 10
-1.799603775260038
 20
-175.5357614025706
 42
0.302775204182
 10
-3.599617664585821
 20
-179.1355292731168
1001
AcDbBlockRepETag
1070
     1
1071
        6
1005
174
  0
LINE
  5
175
330
167
100
AcDbEntity
  8
0
  6
0
 62
     7
100
AcDbLine
 10
3.600320522382389
 20
-171.0351595387619
 30
0.0
 11
3.600448711775243
 21
-181.8350256810808
 31
0.0
1001
AcDbBlockRepETag
1070
     1
1071
        7
1005
175
  0
LWPOLYLINE
  5
176
330
167
100
AcDbEntity
  8
0
  6
0
 62
     7
100
AcDbPolyline
 90
        2
 70
     0
 43
0.0
 10
3.600491441611666
 20
-180.9348004546336
 42
0.253336250782
 10
1.433533502218779
 20
-182.0706305073981
1001
AcDbBlockRepETag
1070
     1
1071
        8
1005
176
  0
LWPOLYLINE
  5
177
330
167
100
AcDbEntity
  8
0
  6
0
 62
     7
100
AcDbPolyline
 90
        2
 70
     0
 43
0.0
 10
2.250398040923755
 20
-175.5350890947156
 42
0.340405225754
 10
-1.799603775260038
 20
-175.5357614025706
1001
AcDbBlockRepETag
1070
     1
1071
        9
1005
177
  0
LINE
  5
178
330
167
100
AcDbEntity
  8
0
  6
0
 62
     7
100
AcDbLine
 10
3.600320522382389
 20
-171.0351595387619
 30
0.0
 11
4.500373222632333
 21
-170.1347857077198
 31
0.0
1001
AcDbBlockRepETag
1070
     1
1071
       11
1005
178
  0
LINE
  5
179
330
167
100
AcDbEntity
  8
0
  6
0
 62
     7
100
AcDbLine
 10
0.4503380749956705
 20
-170.5848471367062
 30
0.0
 11
4.500373222632333
 21
-170.1347857077198
 31
0.0
1001
AcDbBlockRepETag
1070
     1
1071
       12
1005
179
  0
LINE
  5
17A
330
167
100
AcDbEntity
  8
0
  6
0
 62
     7
100
AcDbLine
 10
0.4503380749956705
 20
-170.5848471367062
 30
0.0
 11
3.600320522382389
 21
-171.0351595387619
 31
0.0
1001
AcDbBlockRepETag
1070
     1
1071
       13
1005
17A
  0
LINE
  5
17B
330
167
100
AcDbEntity
  8
0
  6
0
 62
     7
100
AcDbLine
 10
0.9004395232768729
 20
-186.3351721654617
 30
0.0
 11
2.250398040923755
 21
-175.5350890947156
 31
0.0
1001
AcDbBlockRepETag
1070
     1
1071
       59
1005
17B
  0
LINE
  5
17C
330
167
100
AcDbEntity
  8
0
  6
0
 62
     7
100
AcDbLine
 10
0.9004395232768729
 20
-186.3351721654617
 30
0.0
 11
3.600448711775243
 21
-181.8350256810808
 31
0.0
1001
AcDbBlockRepETag
1070
     1
1071
       60
1005
17C
  0
LINE
  5
17D
330
167
100
AcDbEntity
  8
0
  6
0
 62
     7
100
AcDbLine
 10
-3.599688452901318
 20
-181.8362097352073
 30
0.0
 11
0.9004395232768729
 21
-186.3351721654617
 31
0.0
1001
AcDbBlockRepETag
1070
     1
1071
       61
1005
17D
  0
LINE
  5
17E
330
167
100
AcDbEntity
  8
0
  6
0
 62
     7
100
AcDbLine
 10
-3.599937345134094
 20
-150.3354064098821
 30
0.0
 11
-3.599880737019702
 21
-152.1358687001338
 31
0.0
1001
AcDbBlockRepETag
1070
     1
1071
        2
1005
17E
  0
LINE
  5
17F
330
167
100
AcDbEntity
  8
0
  6
0
 62
     7
100
AcDbLine
 10
3.600036085001192
 20
-151.235882489811
 30
0.0
 11
3.600121544615831
 21
-149.4354320369311
 31
0.0
1001
AcDbBlockRepETag
1070
     1
1071
        3
1005
17F
  0
LINE
  5
180
330
167
100
AcDbEntity
  8
0
  6
0
 62
     7
100
AcDbLine
 10
3.600286412227433
 20
-169.236144113107
 30
0.0
 11
3.600228369119577
 21
-167.4356817032676
 31
0.0
1001
AcDbBlockRepETag
1070
     1
1071
        5
1005
180
  0
LINE
  5
181
330
167
100
AcDbEntity
  8
0
  6
0
 62
     7
100
AcDbLine
 10
4.500075076997745
 20
-152.135965090114
 30
0.0
 11
-4.499877471185754
 21
-153.0362471944099
 31
0.0
1001
AcDbBlockRepETag
1070
     1
1071
       15
1005
181
  0
LINE
  5
182
330
167
100
AcDbEntity
  8
0
  6
0
 62
     7
100
AcDbLine
 10
-4.499877471185754
 20
-153.0362471944099
 30
0.0
 11
-3.599880737019702
 21
-152.1358687001338
 31
0.0
1001
AcDbBlockRepETag
1070
     1
1071
       16
1005
182
  0
LINE
  5
183
330
167
100
AcDbEntity
  8
0
  6
0
 62
     7
100
AcDbLine
 10
-3.599908795556984
 20
-153.9363239357917
 30
0.0
 11
-4.499877471185754
 21
-153.0362471944099
 31
0.0
1001
AcDbBlockRepETag
1070
     1
1071
       17
1005
183
  0
LINE
  5
184
330
167
100
AcDbEntity
  8
0
  6
0
 62
     7
100
AcDbLine
 10
-3.599908795556984
 20
-153.9363239357917
 30
0.0
 11
-3.599877555447164
 21
-155.7353391223296
 31
0.0
1001
AcDbBlockRepETag
1070
     1
1071
       18
1005
184
  0
LINE
  5
185
330
167
100
AcDbEntity
  8
0
  6
0
 62
     7
100
AcDbLine
 10
3.600185639341361
 20
-154.8353651080979
 30
0.0
 11
3.600147219374775
 21
-154.3859700084867
 31
0.0
1001
AcDbBlockRepETag
1070
     1
1071
       19
1005
185
  0
LINE
  5
186
330
167
100
AcDbEntity
  8
0
  6
0
 62
     7
100
AcDbLine
 10
-3.599877555447164
 20
-155.7353391223296
 30
0.0
 11
3.600185639341361
 21
-154.8353651080979
 31
0.0
1001
AcDbBlockRepETag
1070
     1
1071
       20
1005
186
  0
LINE
  5
187
330
167
100
AcDbEntity
  8
0
  6
0
 62
     7
100
AcDbLine
 10
3.600185639341361
 20
-154.8353651080979
 30
0.0
 11
4.500152879976667
 21
-155.7354417299211
 31
0.0
1001
AcDbBlockRepETag
1070
     1
1071
       21
1005
187
  0
LINE
  5
188
330
167
100
AcDbEntity
  8
0
  6
0
 62
     7
100
AcDbLine
 10
-3.599880737019702
 20
-152.1358687001338
 30
0.0
 11
3.600036085001192
 21
-151.235882489811
 31
0.0
1001
AcDbBlockRepETag
1070
     1
1071
       22
1005
188
  0
LINE
  5
189
330
167
100
AcDbEntity
  8
0
  6
0
 62
     7
100
AcDbLine
 10
3.600079777825158
 20
-153.0363437039341
 30
0.0
 11
-3.599908795556984
 21
-153.9363239357917
 31
0.0
1001
AcDbBlockRepETag
1070
     1
1071
       23
1005
189
  0
LINE
  5
18A
330
167
100
AcDbEntity
  8
0
  6
0
 62
     7
100
AcDbLine
 10
4.500075076997745
 20
-152.135965090114
 30
0.0
 11
3.600079777825158
 21
-153.0363437039341
 31
0.0
1001
AcDbBlockRepETag
1070
     1
1071
       24
1005
18A
  0
LINE
  5
18B
330
167
100
AcDbEntity
  8
0
  6
0
 62
     7
100
AcDbLine
 10
3.600113887980114
 20
-154.8353591296036
 30
0.0
 11
3.600079777825158
 21
-153.0363437039341
 31
0.0
1001
AcDbBlockRepETag
1070
     1
1071
       25
1005
18B
  0
LINE
  5
18C
330
167
100
AcDbEntity
  8
0
  6
0
 62
     7
100
AcDbLine
 10
3.600036085001192
 20
-151.235882489811
 30
0.0
 11
4.500075076997745
 21
-152.135965090114
 31
0.0
1001
AcDbBlockRepETag
1070
     1
1071
       26
1005
18C
  0
LINE
  5
18D
330
167
100
AcDbEntity
  8
0
  6
0
 62
     7
100
AcDbLine
 10
4.500203266448806
 20
-162.9358312324329
 30
0.0
 11
-4.499749281792901
 21
-163.8361133367143
 31
0.0
1001
AcDbBlockRepETag
1070
     1
1071
       27
1005
18D
  0
LINE
  5
18E
330
167
100
AcDbEntity
  8
0
  6
0
 62
     7
100
AcDbLine
 10
-4.499664303672034
 20
-167.4355905743577
 30
0.0
 11
4.500223668292164
 21
-166.535303089433
 31
0.0
1001
AcDbBlockRepETag
1070
     1
1071
       28
1005
18E
  0
LINE
  5
18F
330
167
100
AcDbEntity
  8
0
  6
0
 62
     7
100
AcDbLine
 10
-3.599825252429582
 20
-157.5358010538766
 30
0.0
 11
-4.499868262500967
 21
-156.6357181187923
 31
0.0
1001
AcDbBlockRepETag
1070
     1
1071
       29
1005
18F
  0
LINE
  5
190
330
167
100
AcDbEntity
  8
0
  6
0
 62
     7
100
AcDbLine
 10
-4.499783571460284
 20
-160.2351953325124
 30
0.0
 11
-3.599723696068394
 21
-159.3348220993211
 31
0.0
1001
AcDbBlockRepETag
1070
     1
1071
       30
1005
190
  0
LINE
  5
191
330
167
100
AcDbEntity
  8
0
  6
0
 62
     7
100
AcDbLine
 10
-3.599809155683033
 20
-161.1352725521865
 30
0.0
 11
-4.499783571460284
 21
-160.2351953325124
 31
0.0
1001
AcDbBlockRepETag
1070
     1
1071
       31
1005
191
  0
LINE
  5
192
330
167
100
AcDbEntity
  8
0
  6
0
 62
     7
100
AcDbLine
 10
-4.499749281792901
 20
-163.8361133367143
 30
0.0
 11
-3.599752547626849
 21
-162.9357348424382
 31
0.0
1001
AcDbBlockRepETag
1070
     1
1071
       32
1005
192
  0
LINE
  5
193
330
167
100
AcDbEntity
  8
0
  6
0
 62
     7
100
AcDbLine
 10
-3.599780606105923
 20
-164.7361900781106
 30
0.0
 11
-4.499749281792901
 21
-163.8361133367143
 31
0.0
1001
AcDbBlockRepETag
1070
     1
1071
       33
1005
193
  0
LINE
  5
194
330
167
100
AcDbEntity
  8
0
  6
0
 62
     7
100
AcDbLine
 10
-4.499664303672034
 20
-167.4355905743577
 30
0.0
 11
-3.599746496009174
 21
-166.535205503751
 31
0.0
1001
AcDbBlockRepETag
1070
     1
1071
       34
1005
194
  0
LINE
  5
195
330
167
100
AcDbEntity
  8
0
  6
0
 62
     7
100
AcDbLine
 10
-4.499783571460284
 20
-160.2351953325124
 30
0.0
 11
4.500245033181272
 21
-159.3349195654155
 31
0.0
1001
AcDbBlockRepETag
1070
     1
1071
       35
1005
195
  0
LINE
  5
196
330
167
100
AcDbEntity
  8
0
  6
0
 62
     7
100
AcDbLine
 10
-3.599688452901318
 20
-168.335667913605
 30
0.0
 11
-4.499664303672034
 21
-167.4355905743577
 31
0.0
1001
AcDbBlockRepETag
1070
     1
1071
       36
1005
196
  0
LINE
  5
197
330
167
100
AcDbEntity
  8
0
  6
0
 62
     7
100
AcDbLine
 10
-3.599780606105923
 20
-164.7361900781106
 30
0.0
 11
-3.599746496009174
 21
-166.535205503751
 31
0.0
1001
AcDbBlockRepETag
1070
     1
1071
       37
1005
197
  0
LINE
  5
198
330
167
100
AcDbEntity
  8
0
  6
0
 62
     7
100
AcDbLine
 10
-3.599809155683033
 20
-161.1352725521865
 30
0.0
 11
-3.599752547626849
 21
-162.9357348424382
 31
0.0
1001
AcDbBlockRepETag
1070
     1
1071
       38
1005
198
  0
LINE
  5
199
330
167
100
AcDbEntity
  8
0
  6
0
 62
     7
100
AcDbLine
 10
-3.599825252429582
 20
-157.5358010538766
 30
0.0
 11
-3.599723696068394
 21
-159.3348220993211
 31
0.0
1001
AcDbBlockRepETag
1070
     1
1071
       39
1005
199
  0
LINE
  5
19A
330
167
100
AcDbEntity
  8
0
  6
0
 62
     7
100
AcDbLine
 10
3.600263442320283
 20
-158.4348417478904
 30
0.0
 11
3.600100179726723
 21
-156.6358155609632
 31
0.0
1001
AcDbBlockRepETag
1070
     1
1071
       40
1005
19A
  0
LINE
  5
19B
330
167
100
AcDbEntity
  8
0
  6
0
 62
     7
100
AcDbLine
 10
3.600164274452254
 20
-162.0357486321154
 30
0.0
 11
3.600249734066892
 21
-160.2352981792501
 31
0.0
1001
AcDbBlockRepETag
1070
     1
1071
       41
1005
19B
  0
LINE
  5
19C
330
167
100
AcDbEntity
  8
0
  6
0
 62
     7
100
AcDbLine
 10
3.600242077372968
 20
-165.635225271908
 30
0.0
 11
3.600207967218011
 21
-163.836209846253
 31
0.0
1001
AcDbBlockRepETag
1070
     1
1071
       42
1005
19C
  0
LINE
  5
19D
330
167
100
AcDbEntity
  8
0
  6
0
 62
     7
100
AcDbLine
 10
-3.599746496009174
 20
-166.535205503751
 30
0.0
 11
3.600242077372968
 21
-165.635225271908
 31
0.0
1001
AcDbBlockRepETag
1070
     1
1071
       43
1005
19D
  0
LINE
  5
19E
330
167
100
AcDbEntity
  8
0
  6
0
 62
     7
100
AcDbLine
 10
3.600207967218011
 20
-163.836209846253
 30
0.0
 11
-3.599780606105923
 21
-164.7361900781106
 31
0.0
1001
AcDbBlockRepETag
1070
     1
1071
       44
1005
19E
  0
LINE
  5
19F
330
167
100
AcDbEntity
  8
0
  6
0
 62
     7
100
AcDbLine
 10
-3.599752547626849
 20
-162.9357348424382
 30
0.0
 11
3.600164274452254
 21
-162.0357486321154
 31
0.0
1001
AcDbBlockRepETag
1070
     1
1071
       45
1005
19F
  0
LINE
  5
1A0
330
167
100
AcDbEntity
  8
0
  6
0
 62
     7
100
AcDbLine
 10
3.600249734066892
 20
-160.2352981792501
 30
0.0
 11
-3.599809155683033
 21
-161.1352725521865
 31
0.0
1001
AcDbBlockRepETag
1070
     1
1071
       46
1005
1A0
  0
LINE
  5
1A1
330
167
100
AcDbEntity
  8
0
  6
0
 62
     7
100
AcDbLine
 10
-3.599723696068394
 20
-159.3348220993211
 30
0.0
 11
3.600263442320283
 21
-158.4348417478904
 31
0.0
1001
AcDbBlockRepETag
1070
     1
1071
       47
1005
1A1
  0
LINE
  5
1A2
330
167
100
AcDbEntity
  8
0
  6
0
 62
     7
100
AcDbLine
 10
3.600100179726723
 20
-156.6358155609632
 30
0.0
 11
-3.599825252429582
 21
-157.5358010538766
 31
0.0
1001
AcDbBlockRepETag
1070
     1
1071
       48
1005
1A2
  0
LINE
  5
1A3
330
167
100
AcDbEntity
  8
0
  6
0
 62
     7
100
AcDbLine
 10
4.500223668292164
 20
-166.535303089433
 30
0.0
 11
3.600228369119577
 21
-167.4356817032676
 31
0.0
1001
AcDbBlockRepETag
1070
     1
1071
       49
1005
1A3
  0
LINE
  5
1A4
330
167
100
AcDbEntity
  8
0
  6
0
 62
     7
100
AcDbLine
 10
3.600242077372968
 20
-165.635225271908
 30
0.0
 11
4.500223668292164
 21
-166.535303089433
 31
0.0
1001
AcDbBlockRepETag
1070
     1
1071
       50
1005
1A4
  0
LINE
  5
1A5
330
167
100
AcDbEntity
  8
0
  6
0
 62
     7
100
AcDbLine
 10
4.500203266448806
 20
-162.9358312324329
 30
0.0
 11
3.600207967218011
 21
-163.836209846253
 31
0.0
1001
AcDbBlockRepETag
1070
     1
1071
       51
1005
1A5
  0
LINE
  5
1A6
330
167
100
AcDbEntity
  8
0
  6
0
 62
     7
100
AcDbLine
 10
3.600164274452254
 20
-162.0357486321154
 30
0.0
 11
4.500203266448806
 21
-162.9358312324329
 31
0.0
1001
AcDbBlockRepETag
1070
     1
1071
       52
1005
1A6
  0
LINE
  5
1A7
330
167
100
AcDbEntity
  8
0
  6
0
 62
     7
100
AcDbLine
 10
4.500245033181272
 20
-159.3349195654155
 30
0.0
 11
3.600249734066892
 21
-160.2352981792501
 31
0.0
1001
AcDbBlockRepETag
1070
     1
1071
       53
1005
1A7
  0
LINE
  5
1A8
330
167
100
AcDbEntity
  8
0
  6
0
 62
     7
100
AcDbLine
 10
3.600263442320283
 20
-158.4348417478904
 30
0.0
 11
4.500245033181272
 21
-159.3349195654155
 31
0.0
1001
AcDbBlockRepETag
1070
     1
1071
       54
1005
1A8
  0
LINE
  5
1A9
330
167
100
AcDbEntity
  8
0
  6
0
 62
     7
100
AcDbLine
 10
3.600228369119577
 20
-167.4356817032676
 30
0.0
 11
-3.599688452901318
 21
-168.335667913605
 31
0.0
1001
AcDbBlockRepETag
1070
     1
1071
       55
1005
1A9
  0
LINE
  5
1AA
330
167
100
AcDbEntity
  8
0
  6
0
 62
     7
100
AcDbLine
 10
-4.499868262500967
 20
-156.6357181187923
 30
0.0
 11
-3.599877555447164
 21
-155.7353391223296
 31
0.0
1001
AcDbBlockRepETag
1070
     1
1071
       56
1005
1AA
  0
LINE
  5
1AB
330
167
100
AcDbEntity
  8
0
  6
0
 62
     7
100
AcDbLine
 10
4.500152879976667
 20
-155.7354417299211
 30
0.0
 11
-4.499868262500967
 21
-156.6357181187923
 31
0.0
1001
AcDbBlockRepETag
1070
     1
1071
       57
1005
1AB
  0
LINE
  5
1AC
330
167
100
AcDbEntity
  8
0
  6
0
 62
     7
100
AcDbLine
 10
4.500152879976667
 20
-155.7354417299211
 30
0.0
 11
3.600100179726723
 21
-156.6358155609632
 31
0.0
1001
AcDbBlockRepETag
1070
     1
1071
       58
1005
1AC
  0
LINE
  5
1AD
330
167
100
AcDbEntity
  8
0
  6
0
 62
     7
100
AcDbLine
 10
4.500024690583813
 20
-144.9355755876022
 30
0.0
 11
-4.499996451952029
 21
-145.8358519764733
 31
0.0
1001
AcDbBlockRepETag
1070
     1
1071
       62
1005
1AD
  0
LINE
  5
1AE
330
167
100
AcDbEntity
  8
0
  6
0
 62
     7
100
AcDbLine
 10
-4.499996451952029
 20
-145.8358519764733
 30
0.0
 11
-3.600005744898226
 21
-144.9354729800107
 31
0.0
1001
AcDbBlockRepETag
1070
     1
1071
       63
1005
1AE
  0
LINE
  5
1AF
330
167
100
AcDbEntity
  8
0
  6
0
 62
     7
100
AcDbLine
 10
4.500024690583813
 20
-144.9355755876022
 30
0.0
 11
3.59997199033387
 21
-145.8359494186588
 31
0.0
1001
AcDbBlockRepETag
1070
     1
1071
       67
1005
1AF
  0
LINE
  5
1B0
330
167
100
AcDbEntity
  8
0
  6
0
 62
     7
100
AcDbLine
 10
-3.599953441880643
 20
-146.7359349115577
 30
0.0
 11
-4.499996451952029
 21
-145.8358519764733
 31
0.0
1001
AcDbBlockRepETag
1070
     1
1071
       68
1005
1B0
  0
LINE
  5
1B1
330
167
100
AcDbEntity
  8
0
  6
0
 62
     7
100
AcDbLine
 10
3.600135252869222
 20
-147.634975605586
 30
0.0
 11
3.59997199033387
 21
-145.8359494186588
 31
0.0
1001
AcDbBlockRepETag
1070
     1
1071
       69
1005
1B1
  0
LINE
  5
1B2
330
167
100
AcDbEntity
  8
0
  6
0
 62
     7
100
AcDbLine
 10
3.59997199033387
 20
-145.8359494186588
 30
0.0
 11
-3.599953441880643
 21
-146.7359349115577
 31
0.0
1001
AcDbBlockRepETag
1070
     1
1071
       70
1005
1B2
  0
LINE
  5
1B3
330
167
100
AcDbEntity
  8
0
  6
0
 62
     7
100
AcDbLine
 10
-4.499911760911345
 20
-149.435329190208
 30
0.0
 11
4.500116843788418
 21
-148.5350534230965
 31
0.0
1001
AcDbBlockRepETag
1070
     1
1071
       71
1005
1B3
  0
LINE
  5
1B4
330
167
100
AcDbEntity
  8
0
  6
0
 62
     7
100
AcDbLine
 10
-4.499911760911345
 20
-149.435329190208
 30
0.0
 11
-3.599851885461248
 21
-148.5349559570022
 31
0.0
1001
AcDbBlockRepETag
1070
     1
1071
       72
1005
1B4
  0
LINE
  5
1B5
330
167
100
AcDbEntity
  8
0
  6
0
 62
     7
100
AcDbLine
 10
-3.599937345134094
 20
-150.3354064098821
 30
0.0
 11
-4.499911760911345
 21
-149.435329190208
 31
0.0
1001
AcDbBlockRepETag
1070
     1
1071
       73
1005
1B5
  0
LINE
  5
1B6
330
167
100
AcDbEntity
  8
0
  6
0
 62
     7
100
AcDbLine
 10
4.500116843788418
 20
-148.5350534230965
 30
0.0
 11
3.600121544615831
 21
-149.4354320369311
 31
0.0
1001
AcDbBlockRepETag
1070
     1
1071
       74
1005
1B6
  0
LINE
  5
1B7
330
167
100
AcDbEntity
  8
0
  6
0
 62
     7
100
AcDbLine
 10
3.600121544615831
 20
-149.4354320369311
 30
0.0
 11
-3.599937345134094
 21
-150.3354064098821
 31
0.0
1001
AcDbBlockRepETag
1070
     1
1071
       75
1005
1B7
  0
LINE
  5
1B8
330
167
100
AcDbEntity
  8
0
  6
0
 62
     7
100
AcDbLine
 10
-3.599953441880643
 20
-146.7359349115577
 30
0.0
 11
-3.599851885461248
 21
-148.5349559570022
 31
0.0
1001
AcDbBlockRepETag
1070
     1
1071
       76
1005
1B8
  0
LINE
  5
1B9
330
167
100
AcDbEntity
  8
0
  6
0
 62
     7
100
AcDbLine
 10
-3.599851885461248
 20
-148.5349559570022
 30
0.0
 11
3.600135252869222
 21
-147.634975605586
 31
0.0
1001
AcDbBlockRepETag
1070
     1
1071
       77
1005
1B9
  0
LINE
  5
1BA
330
167
100
AcDbEntity
  8
0
  6
0
 62
     7
100
AcDbLine
 10
3.600135252869222
 20
-147.634975605586
 30
0.0
 11
4.500116843788418
 21
-148.5350534230965
 31
0.0
1001
AcDbBlockRepETag
1070
     1
1071
       78
1005
1BA
  0
LINE
  5
1BB
330
167
100
AcDbEntity
  8
0
  6
Continuous
 62
     0
100
AcDbLine
 10
-14.74087911430979
 20
3.03110238588124
 30
0.0
 11
14.73937688570004
 21
3.03110238588124
 31
0.0
1001
AcDbBlockRepETag
1070
     1
1071
       80
1005
1BB
  0
LINE
  5
1BC
330
167
100
AcDbEntity
  8
0
  6
Continuous
 62
     0
100
AcDbLine
 10
-14.74087911430979
 20
5.157082385878311
 30
0.0
 11
14.73937688570004
 21
5.157082385878311
 31
0.0
1001
AcDbBlockRepETag
1070
     1
1071
       81
1005
1BC
  0
LINE
  5
1BD
330
167
100
AcDbEntity
  8
0
  6
Continuous
 62
     0
100
AcDbLine
 10
-7.979079393844585
 20
16.77910638588946
 30
0.0
 11
7.977577165234833
 21
16.77910638588946
 31
0.0
1001
AcDbBlockRepETag
1070
     1
1071
       85
1005
1BD
  0
LINE
  5
1BE
330
167
100
AcDbEntity
  8
0
100
AcDbLine
 10
-13.37209405720932
 20
0.0
 30
0.0
 11
13.37209405720932
 21
0.0
 31
0.0
1001
AcDbBlockRepETag
1070
     1
1071
       90
1005
1BE
  0
ARC
  5
1BF
330
167
100
AcDbEntity
  8
0
  6
Continuous
 62
     0
100
AcDbCircle
 10
-7.979079393844585
 20
2.83428506317432
 30
0.0
 40
4.900335285924
100
AcDbArc
 50
57.13278000020724
 51
122.8672199997927
1001
AcDbBlockRepETag
1070
     1
1071
       99
1005
1BF
  0
LINE
  5
1C0
330
167
100
AcDbEntity
  8
0
100
AcDbLine
 10
-13.37209405720932
 20
3.03110238588124
 30
0.0
 11
-5.593450946442317
 21
3.03110238588124
 31
0.0
1001
AcDbBlockRepETag
1070
     1
1071
      100
1005
1C0
  0
ARC
  5
1C1
330
167
100
AcDbEntity
  8
0
  6
Continuous
 62
     0
100
AcDbCircle
 10
-7.979079393844585
 20
11.87877109996043
 30
0.0
 40
4.900335285924
100
AcDbArc
 50
57.13278000020724
 51
122.8672199997927
1001
AcDbBlockRepETag
1070
     1
1071
      101
1005
1C1
  0
LINE
  5
1C2
330
167
100
AcDbEntity
  8
0
  6
Continuous
 62
     0
100
AcDbLine
 10
-14.74087911430979
 20
5.157082385878311
 30
0.0
 11
-10.63852184661664
 21
6.950078878813656
 31
0.0
1001
AcDbBlockRepETag
1070
     1
1071
       79
1005
1C2
  0
LINE
  5
1C3
330
167
100
AcDbEntity
  8
0
  6
Continuous
 62
     0
100
AcDbLine
 10
-14.74087911430979
 20
3.03110238588124
 30
0.0
 11
-14.74087911430979
 21
5.157082385878311
 31
0.0
1001
AcDbBlockRepETag
1070
     1
1071
       82
1005
1C3
  0
LINE
  5
1C4
330
167
100
AcDbEntity
  8
0
100
AcDbLine
 10
-13.37209405720932
 20
0.0
 30
0.0
 11
-13.37209405720932
 21
3.03110238588124
 31
0.0
1001
AcDbBlockRepETag
1070
     1
1071
       97
1005
1C4
  0
LINE
  5
1C5
330
167
100
AcDbEntity
  8
0
  6
Continuous
 62
     0
100
AcDbLine
 10
-10.63852184661664
 20
6.950078878813656
 30
0.0
 11
-10.63852184661664
 21
15.99456491559976
 31
0.0
1001
AcDbBlockRepETag
1070
     1
1071
       98
1005
1C5
  0
ARC
  5
1C6
330
167
100
AcDbEntity
  8
0
  6
Continuous
 62
     0
100
AcDbCircle
 10
-0.0007511143339798
 20
-1.646053614123957
 30
0.0
 40
18.42515999999999
100
AcDbArc
 50
72.99999999993203
 51
106.99999999988
1001
AcDbBlockRepETag
1070
     1
1071
       83
1005
1C6
  0
ARC
  5
1C7
330
167
100
AcDbEntity
  8
0
  6
Continuous
 62
     0
100
AcDbCircle
 10
7.977577165234833
 20
11.87877109996043
 30
0.0
 40
4.900335285924
100
AcDbArc
 50
57.13278000020724
 51
122.8672199997927
1001
AcDbBlockRepETag
1070
     1
1071
       84
1005
1C7
  0
LINE
  5
1C8
330
167
100
AcDbEntity
  8
0
  6
Continuous
 62
     0
100
AcDbLine
 10
14.73937688570004
 20
5.157082385878311
 30
0.0
 11
10.63701961800689
 21
6.950078878813656
 31
0.0
1001
AcDbBlockRepETag
1070
     1
1071
       86
1005
1C8
  0
LINE
  5
1C9
330
167
100
AcDbEntity
  8
0
100
AcDbLine
 10
13.37209405720932
 20
0.0
 30
0.0
 11
13.37209405720932
 21
3.03110238588124
 31
0.0
1001
AcDbBlockRepETag
1070
     1
1071
       87
1005
1C9
  0
LINE
  5
1CA
330
167
100
AcDbEntity
  8
0
  6
Continuous
 62
     0
100
AcDbLine
 10
14.73937688570004
 20
3.03110238588124
 30
0.0
 11
14.73937688570004
 21
5.157082385878311
 31
0.0
1001
AcDbBlockRepETag
1070
     1
1071
       88
1005
1CA
  0
LINE
  5
1CB
330
167
100
AcDbEntity
  8
0
100
AcDbLine
 10
-5.187501118984073
 20
3.03110238588124
 30
0.0
 11
5.185998890374321
 21
3.03110238588124
 31
0.0
1001
AcDbBlockRepETag
1070
     1
1071
       89
1005
1CB
  0
LINE
  5
1CC
330
167
100
AcDbEntity
  8
0
100
AcDbLine
 10
8.921742942882701
 20
3.03110238588124
 30
0.0
 11
-0.0007511143339798
 21
3.03110238588124
 31
0.0
1001
AcDbBlockRepETag
1070
     1
1071
       91
1005
1CC
  0
ARC
  5
1CD
330
167
100
AcDbEntity
  8
0
  6
Continuous
 62
     0
100
AcDbCircle
 10
7.977577165234833
 20
2.83428506317432
 30
0.0
 40
4.900335285924
100
AcDbArc
 50
57.13278000020724
 51
122.8672199997927
1001
AcDbBlockRepETag
1070
     1
1071
       92
1005
1CD
  0
LINE
  5
1CE
330
167
100
AcDbEntity
  8
0
  6
Continuous
 62
     0
100
AcDbLine
 10
5.318133791210129
 20
6.950078878813656
 30
0.0
 11
5.318133791210129
 21
15.99456491559976
 31
0.0
1001
AcDbBlockRepETag
1070
     1
1071
       93
1005
1CE
  0
LINE
  5
1CF
330
167
100
AcDbEntity
  8
0
  6
Continuous
 62
     0
100
AcDbLine
 10
-5.319636019819881
 20
6.950078878813656
 30
0.0
 11
-5.319636019819881
 21
15.99456491559976
 31
0.0
1001
AcDbBlockRepETag
1070
     1
1071
       94
1005
1CF
  0
ARC
  5
1D0
330
167
100
AcDbEntity
  8
0
  6
Continuous
 62
     0
100
AcDbCircle
 10
-0.0007511143339798
 20
-10.69053965089551
 30
0.0
 40
18.42515999999999
100
AcDbArc
 50
72.87999999992959
 51
106.7786499997345
1001
AcDbBlockRepETag
1070
     1
1071
       95
1005
1D0
  0
LINE
  5
1D1
330
167
100
AcDbEntity
  8
0
  6
Continuous
 62
     0
100
AcDbLine
 10
10.63701961800689
 20
6.950078878813656
 30
0.0
 11
10.63701961800689
 21
15.99456491559976
 31
0.0
1001
AcDbBlockRepETag
1070
     1
1071
       96
1005
1D1
  0
ENDBLK
  5
1D2
330
167
100
AcDbEntity
  8
0
100
AcDbBlockEnd
  0
BLOCK
  5
225
330
224
100
AcDbEntity
  8
0
100
AcDbBlockBegin
  2
mousse 60 samenstelling M500 basis 02
 70
     0
 10
0.0
 20
0.0
 30
0.0
  3
mousse 60 samenstelling M500 basis 02
  1

  0
HATCH
  5
226
330
224
100
AcDbEntity
  8
mousse
100
AcDbHatch
 10
0.0
 20
0.0
 30
0.0
210
0.0
220
0.0
230
1.0
  2
ANSI37
 70
     0
 71
     1
 91
        2
 92
        1
 93
       19
 72
     1
 10
4.000000000116415
 20
16.69791246124623
 11
1.000000000378349
 21
11.50176003899196
 72
     1
 10
1.000000000378349
 20
11.50176003899196
 11
1.000000000378349
 21
-11.49823996100804
 72
     1
 10
1.000000000378349
 20
-11.49823996100804
 11
4.000000000116415
 21
-16.69439238326049
 72
     1
 10
4.000000000116415
 20
-16.69439238326049
 11
4.000000000116415
 21
-19.99999999995816
 72
     2
 10
2.000000000116415
 20
-19.99999999995816
 40
2.0
 50
360.0
 51
408.5903778923822
 73
     0
 72
     1
 10
3.322875655663665
 20
-21.49999999995817
 11
-0.9999999998835846
 21
-21.49999999995817
 72
     1
 10
-0.9999999998835846
 20
-21.49999999995817
 11
-0.9999999998835846
 21
-19.92820323028536
 72
     1
 10
-0.9999999998835846
 20
-19.92820323028536
 11
1.517638090241234
 21
-19.25360413720591
 72
     2
 10
1.000000000056352
 20
-17.32175248463137
 40
1.999999999991305
 50
284.9999999994689
 51
445.0000000000557
 73
     1
 72
     1
 10
1.174311485548969
 20
-15.32936308845637
 11
0.0000000000582077
 21
-15.22662414602928
 72
     1
 10
0.0000000000582077
 20
-15.22662414602746
 11
0.0
 21
0.0
 72
     1
 10
0.0
 20
0.000000000003638
 11
0.0000000000582077
 21
15.2266241460311
 72
     1
 10
0.0000000000582077
 20
15.22662414603292
 11
1.174311485548969
 21
15.32936308846001
 72
     2
 10
1.000000000056352
 20
17.32175248463501
 40
1.999999999991305
 50
274.9999999999442
 51
435.0000000005311
 73
     1
 72
     1
 10
1.517638090241234
 20
19.25360413720955
 11
-0.9999999998835846
 21
19.928203230289
 72
     1
 10
-0.9999999998835846
 20
19.928203230289
 11
-0.9999999998835846
 21
21.4999999999618
 72
     1
 10
-0.9999999998835846
 20
21.4999999999618
 11
3.322875655663665
 21
21.4999999999618
 72
     2
 10
2.000000000116415
 20
19.9999999999618
 40
2.0
 50
311.4096221076177
 51
360.0
 73
     0
 72
     1
 10
4.000000000116415
 20
19.9999999999618
 11
4.000000000116415
 21
16.69791246124623
 97
       13
330
234
330
22B
330
22A
330
22D
330
22C
330
228
330
229
330
233
330
22E
330
230
330
231
330
22F
330
232
 92
       33
 93
        3
 72
     1
 10
4.000000000378349
 20
16.69791246170007
 11
1.000000000378349
 21
11.50176003899196
 72
     1
 10
1.000000000378349
 20
11.50176003899196
 11
1.000000000378349
 21
-11.49823996100804
 72
     1
 10
1.000000000378349
 20
-11.49823996100804
 11
4.000000000378349
 21
-16.69439238371433
 97
       14
330
234
330
22B
330
22A
330
22D
330
22C
330
228
330
229
330
233
330
22E
330
230
330
231
330
22F
330
232
330
227
 75
     0
 76
     1
 52
0.0
 41
10.0
 77
     0
 78
     2
 53
45.0
 43
-0.9999999998835846
 44
-21.49999999999636
 45
-0.8838834764831842
 46
0.8838834764831844
 79
     0
 53
135.0
 43
-0.9999999998835846
 44
-21.49999999999636
 45
-0.8838834764831844
 46
-0.8838834764831842
 79
     0
 98
        1
 10
18890.52092390419
 20
7621.720378862882
1001
ACAD
1010
0.0
1020
0.0
1030
0.0
  0
LWPOLYLINE
  5
227
102
{ACAD_REACTORS
330
226
102
}
330
224
100
AcDbEntity
  8
0
100
AcDbPolyline
 90
        4
 70
     0
 43
0.0
 10
4.000000000378349
 20
16.69791246170007
 10
1.000000000378349
 20
11.50176003899196
 10
1.000000000378349
 20
-11.49823996100804
 10
4.000000000378349
 20
-16.69439238371433
  0
LWPOLYLINE
  5
228
102
{ACAD_REACTORS
330
226
102
}
330
224
100
AcDbEntity
  8
mousse
100
AcDbPolyline
 90
        4
 70
     0
 43
0.0
 10
-0.9999999998835846
 20
-19.92820323028536
 10
1.517638090241234
 20
-19.25360413720591
 42
0.8390996311816444
 10
1.174311485548969
 20
-15.32936308845637
 10
0.0000000000582077
 20
-15.22662414602928
1001
AcDbBlockRepETag
1070
     1
1071
        0
1005
0
  0
LINE
  5
229
102
{ACAD_REACTORS
330
226
102
}
330
224
100
AcDbEntity
  8
mousse
100
AcDbLine
 10
0.0
 20
0.0
 30
0.0
 11
0.0000000000582077
 21
-15.22662414602746
 31
0.0
  0
ARC
  5
22A
102
{ACAD_REACTORS
330
226
102
}
330
224
100
AcDbEntity
  8
mousse
100
AcDbCircle
 10
2.000000000116415
 20
-19.99999999995816
 30
0.0
 40
2.0
100
AcDbArc
 50
311.4096221076177
 51
0.0
1001
AcDbBlockRepETag
1070
     1
1071
        0
1005
0
  0
LINE
  5
22B
102
{ACAD_REACTORS
330
226
102
}
330
224
100
AcDbEntity
  8
mousse
100
AcDbLine
 10
4.000000000116415
 20
-16.69439238326049
 30
0.0
 11
4.000000000116415
 21
-19.99999999995816
 31
0.0
  0
LINE
  5
22C
102
{ACAD_REACTORS
330
226
102
}
330
224
100
AcDbEntity
  8
mousse
100
AcDbLine
 10
-0.9999999998835846
 20
-19.92820323028536
 30
0.0
 11
-0.9999999998835846
 21
-21.49999999995817
 31
0.0
  0
LINE
  5
22D
102
{ACAD_REACTORS
330
226
102
}
330
224
100
AcDbEntity
  8
mousse
100
AcDbLine
 10
-0.9999999998835846
 20
-21.49999999995817
 30
0.0
 11
3.322875655663665
 21
-21.49999999995817
 31
0.0
  0
LWPOLYLINE
  5
22E
102
{ACAD_REACTORS
330
226
102
}
330
224
100
AcDbEntity
  8
mousse
100
AcDbPolyline
 90
        4
 70
     0
 43
0.0
 10
-0.9999999998835846
 20
19.928203230289
 10
1.517638090241234
 20
19.25360413720955
 42
-0.8390996311816444
 10
1.174311485548969
 20
15.32936308846001
 10
0.0000000000582077
 20
15.22662414603292
1001
AcDbBlockRepETag
1070
     1
1071
        0
1005
0
  0
ARC
  5
22F
102
{ACAD_REACTORS
330
226
102
}
330
224
100
AcDbEntity
  8
mousse
100
AcDbCircle
 10
2.000000000116415
 20
19.9999999999618
 30
0.0
 40
2.0
100
AcDbArc
 50
0.0
 51
48.59037789238229
1001
AcDbBlockRepETag
1070
     1
1071
        0
1005
0
  0
LINE
  5
230
102
{ACAD_REACTORS
330
226
102
}
330
224
100
AcDbEntity
  8
mousse
100
AcDbLine
 10
-0.9999999998835846
 20
19.928203230289
 30
0.0
 11
-0.9999999998835846
 21
21.4999999999618
 31
0.0
  0
LINE
  5
231
102
{ACAD_REACTORS
330
226
102
}
330
224
100
AcDbEntity
  8
mousse
100
AcDbLine
 10
-0.9999999998835846
 20
21.4999999999618
 30
0.0
 11
3.322875655663665
 21
21.4999999999618
 31
0.0
  0
LINE
  5
232
102
{ACAD_REACTORS
330
226
102
}
330
224
100
AcDbEntity
  8
mousse
100
AcDbLine
 10
4.000000000116415
 20
16.69791246124623
 30
0.0
 11
4.000000000116415
 21
19.9999999999618
 31
0.0
  0
LINE
  5
233
102
{ACAD_REACTORS
330
226
102
}
330
224
100
AcDbEntity
  8
mousse
100
AcDbLine
 10
0.0
 20
0.000000000003638
 30
0.0
 11
0.0000000000582077
 21
15.2266241460311
 31
0.0
  0
LWPOLYLINE
  5
234
102
{ACAD_REACTORS
330
226
102
}
330
224
100
AcDbEntity
  8
mousse
100
AcDbPolyline
 90
        4
 70
     0
 43
0.0
 10
4.000000000116415
 20
16.69791246124623
 10
1.000000000378349
 20
11.50176003899196
 10
1.000000000378349
 20
-11.49823996100804
 10
4.000000000116415
 20
-16.69439238326049
  0
ENDBLK
  5
235
330
224
100
AcDbEntity
  8
0
100
AcDbBlockEnd
  0
BLOCK
  5
237
330
236
100
AcDbEntity
  8
0
100
AcDbBlockBegin
  2
mousse 60 M500 basis 02
 70
     0
 10
0.0
 20
0.0
 30
0.0
  3
mousse 60 M500 basis 02
  1

  0
HATCH
  5
238
330
236
100
AcDbEntity
  8
mousse
100
AcDbHatch
 10
0.0
 20
0.0
 30
0.0
210
0.0
220
0.0
230
1.0
  2
ANSI37
 70
     0
 71
     1
 91
        1
 92
        1
 93
       18
 72
     1
 10
-2.000000000261934
 20
21.49823996096893
 11
-2.000000000258296
 21
19.37564434656815
 72
     2
 10
-7.000000000258607
 20
19.3756443465682
 40
5.00000000000031
 50
0.0000000000005598
 51
29.9999999999986
 73
     0
 72
     1
 10
-2.669872981336084
 20
16.87564434656815
 11
-4.33012701892585
 21
14.00000000000364
 72
     2
 10
-0.0000000000025757
 20
11.50000000000338
 40
5.000000000001062
 50
150.0000000000037
 51
180.0000000000179
 73
     1
 72
     1
 10
-5.000000000003637
 20
11.50000000000182
 11
-5.0
 21
-11.49999999999818
 72
     2
 10
0.0000000000017026
 20
-11.49999999999776
 40
5.000000000001702
 50
180.0000000000048
 51
209.9999999999943
 73
     1
 72
     1
 10
-4.330127018922212
 20
-13.99999999999818
 11
-2.66987298134336
 21
-16.87564434655905
 72
     2
 10
-7.000000000264333
 20
-19.37564434655869
 40
4.99999999999876
 50
329.9999999999966
 51
359.9999999999833
 73
     0
 72
     1
 10
-2.000000000265572
 20
-19.37564434655724
 11
-2.000000000261934
 21
-21.50176003899833
 72
     1
 10
-2.000000000261934
 20
-21.50176003899833
 11
2.322875655285315
 21
-21.50176003899833
 72
     2
 10
0.9999999997380655
 20
-20.00176003899833
 40
2.0
 50
311.4096221076522
 51
360.0
 73
     1
 72
     1
 10
2.999999999738065
 20
-20.00176003899833
 11
2.999999999738065
 21
-16.69615242225336
 72
     1
 10
2.999999999738065
 20
-16.69615242225336
 11
0.0
 21
-11.5
 72
     1
 10
0.0
 20
-11.5
 11
0.0
 21
11.5
 72
     1
 10
0.0
 20
11.5
 11
2.999999999738065
 21
16.69615242225336
 72
     1
 10
2.999999999738065
 20
16.69615242225336
 11
2.999999999738065
 21
19.99823996096711
 72
     2
 10
0.9999999997380655
 20
19.99823996096711
 40
2.0
 50
0.0
 51
48.59037789234783
 73
     1
 72
     1
 10
2.322875655285315
 20
21.49823996096893
 11
-2.000000000261934
 21
21.49823996096893
 97
        8
330
240
330
23E
330
23A
330
23C
330
23F
330
23B
330
239
330
23D
 75
     0
 76
     1
 52
0.0
 41
10.0
 77
     0
 78
     2
 53
45.0
 43
-5.000000000003637
 44
-21.50176003903653
 45
-0.8838834764831842
 46
0.8838834764831844
 79
     0
 53
135.0
 43
-5.000000000003637
 44
-21.50176003903653
 45
-0.8838834764831844
 46
-0.8838834764831842
 79
     0
 98
        1
 10
20514.39323365868
 20
11561.84717222261
1001
ACAD
1010
0.0
1020
0.0
1030
0.0
  0
ARC
  5
239
102
{ACAD_REACTORS
330
238
102
}
330
236
100
AcDbEntity
  8
mousse
100
AcDbCircle
 10
0.9999999997380655
 20
19.99823996096711
 30
0.0
 40
2.0
100
AcDbArc
 50
0.0
 51
48.59037789234783
  0
ARC
  5
23A
102
{ACAD_REACTORS
330
238
102
}
330
236
100
AcDbEntity
  8
mousse
100
AcDbCircle
 10
0.9999999997380655
 20
-20.00176003899833
 30
0.0
 40
2.0
100
AcDbArc
 50
311.4096221076522
 51
0.0
1001
AcDbBlockRepETag
1070
     1
1071
        0
1005
0
  0
LINE
  5
23B
102
{ACAD_REACTORS
330
238
102
}
330
236
100
AcDbEntity
  8
mousse
100
AcDbLine
 10
2.999999999738065
 20
19.99823996096711
 30
0.0
 11
2.999999999738065
 21
16.69615242225336
 31
0.0
  0
LINE
  5
23C
102
{ACAD_REACTORS
330
238
102
}
330
236
100
AcDbEntity
  8
mousse
100
AcDbLine
 10
2.999999999738065
 20
-16.69615242225336
 30
0.0
 11
2.999999999738065
 21
-20.00176003899833
 31
0.0
  0
LINE
  5
23D
102
{ACAD_REACTORS
330
238
102
}
330
236
100
AcDbEntity
  8
mousse
100
AcDbLine
 10
-2.000000000261934
 20
21.49823996096893
 30
0.0
 11
2.322875655285315
 21
21.49823996096893
 31
0.0
  0
LINE
  5
23E
102
{ACAD_REACTORS
330
238
102
}
330
236
100
AcDbEntity
  8
mousse
100
AcDbLine
 10
-2.000000000261934
 20
-21.50176003899833
 30
0.0
 11
2.322875655285315
 21
-21.50176003899833
 31
0.0
  0
LWPOLYLINE
  5
23F
102
{ACAD_REACTORS
330
238
102
}
330
236
100
AcDbEntity
  8
mousse
100
AcDbPolyline
 90
        4
 70
     0
 43
0.0
 10
2.999999999738065
 20
16.69615242225336
 10
0.0
 20
11.5
 10
0.0
 20
-11.5
 10
2.999999999738065
 20
-16.69615242225336
  0
LWPOLYLINE
  5
240
102
{ACAD_REACTORS
330
238
102
}
330
236
100
AcDbEntity
  8
mousse
100
AcDbPolyline
 90
       10
 70
     0
 43
0.0
 10
-2.000000000261934
 20
21.49823996096893
 10
-2.000000000258296
 20
19.37564434656815
 42
-0.1316524975873871
 10
-2.669872981336084
 20
16.87564434656815
 10
-4.33012701892585
 20
14.00000000000364
 42
0.1316524975874592
 10
-5.000000000003637
 20
11.50000000000182
 10
-5.0
 20
-11.49999999999818
 42
0.1316524975873492
 10
-4.330127018922212
 20
-13.99999999999818
 10
-2.66987298134336
 20
-16.87564434655905
 42
-0.1316524975873369
 10
-2.000000000265572
 20
-19.37564434655724
 10
-2.000000000261934
 20
-21.50176003899833
  0
ENDBLK
  5
241
330
236
100
AcDbEntity
  8
0
100
AcDbBlockEnd
  0
BLOCK
  5
243
330
242
100
AcDbEntity
  8
0
100
AcDbBlockBegin
  2
P60 1150 EUROBOX def M500 basis 02
 70
     0
 10
0.0
 20
0.0
 30
0.0
  3
P60 1150 EUROBOX def M500 basis 02
  1

  0
LINE
  5
244
330
242
100
AcDbEntity
  8
0
100
AcDbLine
 10
0.0000000003201421
 20
-15.226624146022
 30
0.0
 11
-0.0000000003201421
 21
15.22662414602382
 31
0.0
  0
LINE
  5
245
330
242
100
AcDbEntity
  8
0
100
AcDbLine
 10
-1139.163459361792
 20
-14.89097033306461
 30
0.0
 11
-1139.141044549033
 21
-15.49130119357505
 31
0.0
  0
LINE
  5
246
330
242
100
AcDbEntity
  8
0
100
AcDbLine
 10
-3.806662004644749
 20
-14.89358437471674
 30
0.0
 11
-3.858955450268695
 21
-15.49130119357142
 31
0.0
  0
LINE
  5
247
330
242
100
AcDbEntity
  8
0
100
AcDbLine
 10
-1139.163459361792
 20
14.890970333121
 30
0.0
 11
-1139.141044549033
 21
15.49130119363144
 31
0.0
  0
LWPOLYLINE
  5
248
330
242
100
AcDbEntity
  8
0
100
AcDbPolyline
 90
      103
 70
     0
 43
0.0
 10
-3.858955450268695
 20
15.4913011936278
 10
1.122018040186958
 20
15.9270799073638
 42
0.839099631179819
 10
1.362346663459902
 20
18.67404864148375
 10
-5.028124879201641
 20
20.38637033058512
 42
0.065543462826473
 10
-5.131652497249888
 20
20.40000000006876
 10
-18.75735931258532
 20
20.40000000006876
 42
-0.6341370759950723
 10
-20.37727666585124
 20
23.83636363641926
 42
0.6341370759957849
 10
-22.99999999967986
 20
29.40000000003966
 10
-64.85388379529467
 20
29.40000000003966
 42
0.0938849627440341
 10
-64.92703449449618
 20
29.38614235203932
 10
-69.82237362957675
 20
27.46235941602208
 42
-0.0938849627468216
 10
-70.15155177589623
 20
27.40000000003965
 10
-114.848448223347
 20
27.40000000003965
 42
-0.0938849627466257
 10
-115.1776263696665
 20
27.46235941601844
 10
-120.0729655048053
 20
29.38614235204295
 42
0.0938849627371667
 10
-120.1461162039486
 20
29.40000000003966
 10
-164.8538837952947
 20
29.40000000002328
 42
0.0938849627365883
 10
-164.9270344944962
 20
29.38614235202294
 10
-169.8223736295767
 20
27.46235941600753
 42
-0.0938849627468076
 10
-170.1515517758962
 20
27.40000000002329
 10
-214.8484482233471
 20
27.40000000002329
 42
-0.0938849627467576
 10
-215.1776263696665
 20
27.46235941600389
 10
-220.0729655048053
 20
29.38614235202658
 42
0.0938849627346328
 10
-220.1461162039486
 20
29.40000000002328
 10
-264.8538837952947
 20
29.40000000002328
 42
0.0938849627365172
 10
-264.9270344944962
 20
29.38614235202294
 10
-269.8223736295767
 20
27.46235941600753
 42
-0.0938849627468076
 10
-270.1515517758962
 20
27.40000000002329
 10
-314.8484482233471
 20
27.40000000002329
 42
-0.0938849627467576
 10
-315.1776263696665
 20
27.46235941600389
 10
-320.0729655048053
 20
29.38614235202658
 42
0.0938849627346352
 10
-320.1461162039486
 20
29.40000000002328
 10
-364.8538837952947
 20
29.40000000002328
 42
0.0938849627365172
 10
-364.9270344944962
 20
29.38614235202294
 10
-369.8223736295767
 20
27.46235941600753
 42
-0.0938849627468076
 10
-370.1515517758962
 20
27.40000000002329
 10
-414.848448223347
 20
27.40000000002329
 42
-0.0938849627467576
 10
-415.1776263696665
 20
27.46235941600389
 10
-420.0729655048053
 20
29.38614235202658
 42
0.0938849627346302
 10
-420.1461162039485
 20
29.40000000002328
 10
-464.8538837952947
 20
29.40000000002328
 42
0.0938849627365172
 10
-464.9270344944961
 20
29.38614235202294
 10
-469.8223736295767
 20
27.46235941600753
 42
-0.0938849627468076
 10
-470.1515517758962
 20
27.40000000002329
 10
-514.848448223347
 20
27.40000000002329
 42
-0.0938849627467581
 10
-515.1776263696665
 20
27.46235941600389
 10
-520.0729655048053
 20
29.38614235202658
 42
0.0938849627346537
 10
-520.1461162039485
 20
29.40000000002328
 10
-564.8538837952947
 20
29.40000000002328
 42
0.0938849627365172
 10
-564.9270344944961
 20
29.38614235202294
 10
-569.8223736295767
 20
27.46235941600753
 42
-0.0938849627468075
 10
-570.1515517758962
 20
27.40000000002329
 10
-614.848448223347
 20
27.40000000002329
 42
-0.0938849627467581
 10
-615.1776263696665
 20
27.46235941600389
 10
-620.0729655048053
 20
29.38614235202658
 42
0.0938849627346562
 10
-620.1461162039485
 20
29.40000000002328
 10
-664.8538837952947
 20
29.40000000002328
 42
0.0938849627365172
 10
-664.9270344944961
 20
29.38614235202294
 10
-669.8223736295767
 20
27.46235941600753
 42
-0.0938849627468078
 10
-670.1515517758962
 20
27.40000000002329
 10
-714.848448223347
 20
27.40000000002329
 42
-0.093884962746761
 10
-715.1776263696665
 20
27.46235941600389
 10
-720.0729655048053
 20
29.38614235202658
 42
0.0938849627345877
 10
-720.1461162039485
 20
29.40000000002328
 10
-764.8538837952947
 20
29.40000000002328
 42
0.0938849627365172
 10
-764.9270344944961
 20
29.38614235202294
 10
-769.8223736295767
 20
27.46235941600753
 42
-0.0938849627468087
 10
-770.1515517758962
 20
27.40000000002329
 10
-814.848448223347
 20
27.40000000002329
 42
-0.0938849627467369
 10
-815.1776263696666
 20
27.46235941600389
 10
-820.0729655048053
 20
29.38614235202658
 42
0.0938849627346414
 10
-820.1461162039485
 20
29.40000000002328
 10
-864.8538837952946
 20
29.40000000002328
 42
0.0938849627365194
 10
-864.9270344944962
 20
29.38614235202294
 10
-869.8223736295767
 20
27.46235941600753
 42
-0.0938849627468092
 10
-870.1515517758961
 20
27.40000000002329
 10
-914.848448223347
 20
27.40000000002329
 42
-0.0938849627467605
 10
-915.1776263696666
 20
27.46235941600389
 10
-920.0729655048053
 20
29.38614235202658
 42
0.0938849627346129
 10
-920.1461162039485
 20
29.40000000002328
 10
-964.8538837952946
 20
29.40000000002328
 42
0.0938849627365168
 10
-964.9270344944962
 20
29.38614235202294
 10
-969.8223736295767
 20
27.46235941600753
 42
-0.0938849627468092
 10
-970.1515517758961
 20
27.40000000002329
 10
-1014.848448223347
 20
27.40000000002329
 42
-0.0938849627467605
 10
-1015.177626369666
 20
27.46235941600389
 10
-1020.072965504805
 20
29.38614235202658
 42
0.0938849627346202
 10
-1020.146116203948
 20
29.40000000002328
 10
-1064.853883795294
 20
29.40000000002328
 42
0.0938849627365168
 10
-1064.927034494496
 20
29.38614235202294
 10
-1069.822373629577
 20
27.46235941600753
 42
-0.0938849627468092
 10
-1070.151551775896
 20
27.40000000002329
 10
-1114.848448223347
 20
27.40000000002329
 42
-0.0938849627467605
 10
-1115.177626369666
 20
27.46235941600389
 10
-1120.072965504805
 20
29.38614235202658
 42
0.0938849627346202
 10
-1120.146116203948
 20
29.40000000002328
 10
-1161.999999999622
 20
29.40000000001055
 42
1.0
 10
-1161.999999999622
 20
22.60000000001128
 10
-1147.999999999621
 20
22.60000000001128
 42
-0.4142135623704747
 10
-1145.399999999645
 20
20.00000000001092
 10
-1145.399999999645
 20
17.3217524846932
 42
0.3888787318321749
 10
-1144.122018039547
 20
15.92707990737108
 10
-1139.141044549033
 20
15.49130119362962
1001
AcDbBlockRepETag
1070
     1
1071
        6
1005
0
  0
LWPOLYLINE
  5
249
330
242
100
AcDbEntity
  8
0
100
AcDbPolyline
 90
      104
 70
     0
 43
0.0
 10
-3.806662004644749
 20
14.89358437477313
 10
1.174311485810903
 20
15.32936308850912
 42
0.8390996311816444
 10
1.517638090503169
 20
19.25360413725866
 10
-4.872833452158374
 20
20.96592582635822
 42
0.0655434628151784
 10
-5.131652497249888
 20
21.00000000006912
 10
-18.75735931258532
 20
21.00000000006912
 42
-0.6341370759934755
 10
-19.91444313633838
 20
23.45454545460234
 42
0.6341370759954755
 10
-22.99999999967986
 20
30.00000000004002
 10
-64.85388379529467
 20
30.00000000004002
 42
0.0938849627467446
 10
-65.14648659204249
 20
29.94456940805503
 10
-70.04182572712307
 20
28.02078647203416
 42
-0.0938849627447701
 10
-70.15155177589623
 20
28.0000000000382
 10
-114.848448223347
 20
28.0000000000382
 42
-0.0938849627444905
 10
-114.9581742721202
 20
28.02078647203234
 10
-119.853513407259
 20
29.94456940805503
 42
0.0938849627454487
 10
-120.1461162039486
 20
30.00000000004002
 10
-164.8538837954111
 20
30.00000000002365
 10
-164.8538837952947
 20
30.00000000002365
 42
0.0938849627447989
 10
-165.1464865920425
 20
29.94456940803866
 10
-170.041825727123
 20
28.02078647201779
 42
-0.0938849627448
 10
-170.1515517758962
 20
28.00000000002365
 10
-214.8484482233471
 20
28.00000000002365
 42
-0.0938849627447955
 10
-214.9581742721202
 20
28.02078647201779
 10
-219.853513407259
 20
29.94456940803866
 42
0.0938849627448075
 10
-220.1461162039486
 20
30.00000000002365
 10
-264.8538837952947
 20
30.00000000002365
 42
0.0938849627448042
 10
-265.1464865920425
 20
29.94456940803866
 10
-270.041825727123
 20
28.02078647201779
 42
-0.0938849627448
 10
-270.1515517758962
 20
28.00000000002365
 10
-314.8484482233471
 20
28.00000000002365
 42
-0.0938849627447958
 10
-314.9581742721202
 20
28.02078647201779
 10
-319.853513407259
 20
29.94456940803866
 42
0.0938849627448082
 10
-320.1461162039486
 20
30.00000000002365
 10
-364.8538837952947
 20
30.00000000002365
 42
0.0938849627448043
 10
-365.1464865920425
 20
29.94456940803866
 10
-370.0418257271231
 20
28.02078647201779
 42
-0.0938849627448
 10
-370.1515517758962
 20
28.00000000002365
 10
-414.848448223347
 20
28.00000000002365
 42
-0.0938849627447958
 10
-414.9581742721202
 20
28.02078647201779
 10
-419.853513407259
 20
29.94456940803866
 42
0.0938849627448082
 10
-420.1461162039485
 20
30.00000000002365
 10
-464.8538837952947
 20
30.00000000002365
 42
0.0938849627448043
 10
-465.1464865920424
 20
29.94456940803866
 10
-470.041825727123
 20
28.02078647201779
 42
-0.0938849627448
 10
-470.1515517758962
 20
28.00000000002365
 10
-514.848448223347
 20
28.00000000002365
 42
-0.0938849627447971
 10
-514.9581742721202
 20
28.02078647201779
 10
-519.853513407259
 20
29.94456940803866
 42
0.0938849627448073
 10
-520.1461162039485
 20
30.00000000002365
 10
-564.8538837952947
 20
30.00000000002365
 42
0.0938849627448043
 10
-565.1464865920424
 20
29.94456940803866
 10
-570.041825727123
 20
28.02078647201779
 42
-0.0938849627448013
 10
-570.1515517758962
 20
28.00000000002365
 10
-614.848448223347
 20
28.00000000002365
 42
-0.0938849627447971
 10
-614.9581742721202
 20
28.02078647201779
 10
-619.853513407259
 20
29.94456940803866
 42
0.0938849627448073
 10
-620.1461162039485
 20
30.00000000002365
 10
-664.8538837952947
 20
30.00000000002365
 42
0.0938849627448043
 10
-665.1464865920424
 20
29.94456940803866
 10
-670.041825727123
 20
28.02078647201779
 42
-0.0938849627448013
 10
-670.1515517758962
 20
28.00000000002365
 10
-714.848448223347
 20
28.00000000002365
 42
-0.0938849627448058
 10
-714.9581742721202
 20
28.02078647201779
 10
-719.853513407259
 20
29.94456940803866
 42
0.093884962744804
 10
-720.1461162039485
 20
30.00000000002365
 10
-764.8538837952947
 20
30.00000000002365
 42
0.0938849627448043
 10
-765.1464865920424
 20
29.94456940803866
 10
-770.041825727123
 20
28.02078647201779
 42
-0.0938849627448034
 10
-770.1515517758962
 20
28.00000000002365
 10
-814.848448223347
 20
28.00000000002365
 42
-0.0938849627448058
 10
-814.9581742721203
 20
28.02078647201779
 10
-819.853513407259
 20
29.94456940803866
 42
0.093884962744804
 10
-820.1461162039485
 20
30.00000000002365
 10
-864.8538837952946
 20
30.00000000002365
 42
0.0938849627448048
 10
-865.1464865920425
 20
29.94456940803866
 10
-870.041825727123
 20
28.02078647201779
 42
-0.0938849627448049
 10
-870.1515517758961
 20
28.00000000002365
 10
-914.848448223347
 20
28.00000000002365
 42
-0.0938849627448045
 10
-914.9581742721203
 20
28.02078647201779
 10
-919.853513407259
 20
29.94456940803866
 42
0.0938849627448035
 10
-920.1461162039485
 20
30.00000000002365
 10
-964.8538837952946
 20
30.00000000002365
 42
0.0938849627448041
 10
-965.1464865920425
 20
29.94456940803866
 10
-970.041825727123
 20
28.02078647201779
 42
-0.0938849627448049
 10
-970.1515517758961
 20
28.00000000002365
 10
-1014.848448223347
 20
28.00000000002365
 42
-0.0938849627448045
 10
-1014.95817427212
 20
28.02078647201779
 10
-1019.853513407259
 20
29.94456940803866
 42
0.0938849627448041
 10
-1020.146116203948
 20
30.00000000002365
 10
-1064.853883795294
 20
30.00000000002365
 42
0.0938849627448041
 10
-1065.146486592042
 20
29.94456940803866
 10
-1070.041825727123
 20
28.02078647201779
 42
-0.0938849627448049
 10
-1070.151551775896
 20
28.00000000002365
 10
-1114.848448223347
 20
28.00000000002365
 42
-0.0938849627448045
 10
-1114.95817427212
 20
28.02078647201779
 10
-1119.853513407259
 20
29.94456940803866
 42
0.0938849627448041
 10
-1120.146116203948
 20
30.00000000002365
 10
-1161.999999999622
 20
30.00000000001092
 42
0.9999999999999998
 10
-1161.999999999622
 20
22.00000000001091
 10
-1147.999999999621
 20
22.00000000001091
 42
-0.4142135623730951
 10
-1145.999999999621
 20
20.00000000001092
 10
-1145.999999999621
 20
17.3217524846932
 42
0.3888787318369586
 10
-1144.17431148517
 20
15.32936308851822
 10
-1139.163459361792
 20
14.89097033311918
1001
AcDbBlockRepETag
1070
     1
1071
        6
1005
0
  0
LWPOLYLINE
  5
24A
330
242
100
AcDbEntity
  8
0
100
AcDbPolyline
 90
      103
 70
     0
 43
0.0
 10
-3.858955450268695
 20
-15.49130119357142
 10
1.122018040186958
 20
-15.92707990730741
 42
-0.839099631179819
 10
1.362346663459902
 20
-18.67404864142736
 10
-5.028124879201641
 20
-20.38637033052873
 42
-0.065543462826473
 10
-5.131652497249888
 20
-20.40000000001237
 10
-18.75735931258532
 20
-20.40000000001237
 42
0.6341370759950723
 10
-20.37727666585124
 20
-23.83636363636288
 42
-0.6341370759957849
 10
-22.99999999967986
 20
-29.39999999998327
 10
-64.85388379529467
 20
-29.39999999998327
 42
-0.0938849627440341
 10
-64.92703449449618
 20
-29.38614235198293
 10
-69.82237362957675
 20
-27.4623594159657
 42
0.0938849627468216
 10
-70.15155177589623
 20
-27.39999999998327
 10
-114.848448223347
 20
-27.39999999998327
 42
0.0938849627466257
 10
-115.1776263696665
 20
-27.46235941596206
 10
-120.0729655048053
 20
-29.38614235198656
 42
-0.0938849627371667
 10
-120.1461162039486
 20
-29.39999999998327
 10
-164.8538837952947
 20
-29.3999999999669
 42
-0.0938849627365883
 10
-164.9270344944962
 20
-29.38614235196656
 10
-169.8223736295767
 20
-27.46235941595114
 42
0.0938849627468076
 10
-170.1515517758962
 20
-27.39999999996689
 10
-214.8484482233471
 20
-27.39999999996689
 42
0.0938849627467576
 10
-215.1776263696665
 20
-27.46235941594751
 10
-220.0729655048053
 20
-29.3861423519702
 42
-0.0938849627346328
 10
-220.1461162039486
 20
-29.3999999999669
 10
-264.8538837952947
 20
-29.3999999999669
 42
-0.0938849627365172
 10
-264.9270344944962
 20
-29.38614235196656
 10
-269.8223736295767
 20
-27.46235941595114
 42
0.0938849627468076
 10
-270.1515517758962
 20
-27.39999999996689
 10
-314.8484482233471
 20
-27.39999999996689
 42
0.0938849627467576
 10
-315.1776263696665
 20
-27.46235941594751
 10
-320.0729655048053
 20
-29.3861423519702
 42
-0.0938849627346352
 10
-320.1461162039486
 20
-29.3999999999669
 10
-364.8538837952947
 20
-29.3999999999669
 42
-0.0938849627365172
 10
-364.9270344944962
 20
-29.38614235196656
 10
-369.8223736295767
 20
-27.46235941595114
 42
0.0938849627468076
 10
-370.1515517758962
 20
-27.39999999996689
 10
-414.848448223347
 20
-27.39999999996689
 42
0.0938849627467576
 10
-415.1776263696665
 20
-27.46235941594751
 10
-420.0729655048053
 20
-29.3861423519702
 42
-0.0938849627346302
 10
-420.1461162039485
 20
-29.3999999999669
 10
-464.8538837952947
 20
-29.3999999999669
 42
-0.0938849627365172
 10
-464.9270344944961
 20
-29.38614235196656
 10
-469.8223736295767
 20
-27.46235941595114
 42
0.0938849627468076
 10
-470.1515517758962
 20
-27.39999999996689
 10
-514.848448223347
 20
-27.39999999996689
 42
0.0938849627467581
 10
-515.1776263696665
 20
-27.46235941594751
 10
-520.0729655048053
 20
-29.3861423519702
 42
-0.0938849627346537
 10
-520.1461162039485
 20
-29.3999999999669
 10
-564.8538837952947
 20
-29.3999999999669
 42
-0.0938849627365172
 10
-564.9270344944961
 20
-29.38614235196656
 10
-569.8223736295767
 20
-27.46235941595114
 42
0.0938849627468075
 10
-570.1515517758962
 20
-27.39999999996689
 10
-614.848448223347
 20
-27.39999999996689
 42
0.0938849627467581
 10
-615.1776263696665
 20
-27.46235941594751
 10
-620.0729655048053
 20
-29.3861423519702
 42
-0.0938849627346562
 10
-620.1461162039485
 20
-29.3999999999669
 10
-664.8538837952947
 20
-29.3999999999669
 42
-0.0938849627365172
 10
-664.9270344944961
 20
-29.38614235196656
 10
-669.8223736295767
 20
-27.46235941595114
 42
0.0938849627468078
 10
-670.1515517758962
 20
-27.39999999996689
 10
-714.848448223347
 20
-27.39999999996689
 42
0.093884962746761
 10
-715.1776263696665
 20
-27.46235941594751
 10
-720.0729655048053
 20
-29.3861423519702
 42
-0.0938849627345877
 10
-720.1461162039485
 20
-29.3999999999669
 10
-764.8538837952947
 20
-29.3999999999669
 42
-0.0938849627365172
 10
-764.9270344944961
 20
-29.38614235196656
 10
-769.8223736295767
 20
-27.46235941595114
 42
0.0938849627468087
 10
-770.1515517758962
 20
-27.39999999996689
 10
-814.848448223347
 20
-27.39999999996689
 42
0.0938849627467369
 10
-815.1776263696666
 20
-27.46235941594751
 10
-820.0729655048053
 20
-29.3861423519702
 42
-0.0938849627346414
 10
-820.1461162039485
 20
-29.3999999999669
 10
-864.8538837952946
 20
-29.3999999999669
 42
-0.0938849627365194
 10
-864.9270344944962
 20
-29.38614235196656
 10
-869.8223736295767
 20
-27.46235941595114
 42
0.0938849627468092
 10
-870.1515517758961
 20
-27.39999999996689
 10
-914.848448223347
 20
-27.39999999996689
 42
0.0938849627467605
 10
-915.1776263696666
 20
-27.46235941594751
 10
-920.0729655048053
 20
-29.3861423519702
 42
-0.0938849627346129
 10
-920.1461162039485
 20
-29.3999999999669
 10
-964.8538837952946
 20
-29.3999999999669
 42
-0.0938849627365168
 10
-964.9270344944962
 20
-29.38614235196656
 10
-969.8223736295767
 20
-27.46235941595114
 42
0.0938849627468092
 10
-970.1515517758961
 20
-27.39999999996689
 10
-1014.848448223347
 20
-27.39999999996689
 42
0.0938849627467605
 10
-1015.177626369666
 20
-27.46235941594751
 10
-1020.072965504805
 20
-29.3861423519702
 42
-0.0938849627346202
 10
-1020.146116203948
 20
-29.3999999999669
 10
-1064.853883795294
 20
-29.3999999999669
 42
-0.0938849627365168
 10
-1064.927034494496
 20
-29.38614235196656
 10
-1069.822373629577
 20
-27.46235941595114
 42
0.0938849627468092
 10
-1070.151551775896
 20
-27.39999999996689
 10
-1114.848448223347
 20
-27.39999999996689
 42
0.0938849627467605
 10
-1115.177626369666
 20
-27.46235941594751
 10
-1120.072965504805
 20
-29.3861423519702
 42
-0.0938849627346202
 10
-1120.146116203948
 20
-29.3999999999669
 10
-1161.999999999622
 20
-29.39999999995416
 42
-1.0
 10
-1161.999999999622
 20
-22.59999999995489
 10
-1147.999999999621
 20
-22.59999999995489
 42
0.4142135623704747
 10
-1145.399999999645
 20
-19.99999999995452
 10
-1145.399999999645
 20
-17.32175248463682
 42
-0.3888787318321749
 10
-1144.122018039547
 20
-15.92707990731469
 10
-1139.141044549033
 20
-15.49130119357323
1001
AcDbBlockRepETag
1070
     1
1071
        6
1005
0
  0
LWPOLYLINE
  5
24B
330
242
100
AcDbEntity
  8
0
100
AcDbPolyline
 90
      104
 70
     0
 43
0.0
 10
-3.806662004644749
 20
-14.89358437471674
 10
1.174311485810903
 20
-15.32936308845274
 42
-0.8390996311816444
 10
1.517638090503169
 20
-19.25360413720227
 10
-4.872833452158374
 20
-20.96592582630183
 42
-0.0655434628151784
 10
-5.131652497249888
 20
-21.00000000001273
 10
-18.75735931258532
 20
-21.00000000001273
 42
0.6341370759934755
 10
-19.91444313633838
 20
-23.45454545454595
 42
-0.6341370759954755
 10
-22.99999999967986
 20
-29.99999999998363
 10
-64.85388379529467
 20
-29.99999999998363
 42
-0.0938849627467446
 10
-65.14648659204249
 20
-29.94456940799864
 10
-70.04182572712307
 20
-28.02078647197777
 42
0.0938849627447701
 10
-70.15155177589623
 20
-27.99999999998181
 10
-114.848448223347
 20
-27.99999999998181
 42
0.0938849627444905
 10
-114.9581742721202
 20
-28.02078647197595
 10
-119.853513407259
 20
-29.94456940799864
 42
-0.0938849627454487
 10
-120.1461162039486
 20
-29.99999999998363
 10
-164.8538837954111
 20
-29.99999999996726
 10
-164.8538837952947
 20
-29.99999999996726
 42
-0.0938849627447989
 10
-165.1464865920425
 20
-29.94456940798227
 10
-170.041825727123
 20
-28.0207864719614
 42
0.0938849627448
 10
-170.1515517758962
 20
-27.99999999996726
 10
-214.8484482233471
 20
-27.99999999996726
 42
0.0938849627447955
 10
-214.9581742721202
 20
-28.0207864719614
 10
-219.853513407259
 20
-29.94456940798227
 42
-0.0938849627448075
 10
-220.1461162039486
 20
-29.99999999996726
 10
-264.8538837952947
 20
-29.99999999996726
 42
-0.0938849627448042
 10
-265.1464865920425
 20
-29.94456940798227
 10
-270.041825727123
 20
-28.0207864719614
 42
0.0938849627448
 10
-270.1515517758962
 20
-27.99999999996726
 10
-314.8484482233471
 20
-27.99999999996726
 42
0.0938849627447958
 10
-314.9581742721202
 20
-28.0207864719614
 10
-319.853513407259
 20
-29.94456940798227
 42
-0.0938849627448082
 10
-320.1461162039486
 20
-29.99999999996726
 10
-364.8538837952947
 20
-29.99999999996726
 42
-0.0938849627448043
 10
-365.1464865920425
 20
-29.94456940798227
 10
-370.0418257271231
 20
-28.0207864719614
 42
0.0938849627448
 10
-370.1515517758962
 20
-27.99999999996726
 10
-414.848448223347
 20
-27.99999999996726
 42
0.0938849627447958
 10
-414.9581742721202
 20
-28.0207864719614
 10
-419.853513407259
 20
-29.94456940798227
 42
-0.0938849627448082
 10
-420.1461162039485
 20
-29.99999999996726
 10
-464.8538837952947
 20
-29.99999999996726
 42
-0.0938849627448043
 10
-465.1464865920424
 20
-29.94456940798227
 10
-470.041825727123
 20
-28.0207864719614
 42
0.0938849627448
 10
-470.1515517758962
 20
-27.99999999996726
 10
-514.848448223347
 20
-27.99999999996726
 42
0.0938849627447971
 10
-514.9581742721202
 20
-28.0207864719614
 10
-519.853513407259
 20
-29.94456940798227
 42
-0.0938849627448073
 10
-520.1461162039485
 20
-29.99999999996726
 10
-564.8538837952947
 20
-29.99999999996726
 42
-0.0938849627448043
 10
-565.1464865920424
 20
-29.94456940798227
 10
-570.041825727123
 20
-28.0207864719614
 42
0.0938849627448013
 10
-570.1515517758962
 20
-27.99999999996726
 10
-614.848448223347
 20
-27.99999999996726
 42
0.0938849627447971
 10
-614.9581742721202
 20
-28.0207864719614
 10
-619.853513407259
 20
-29.94456940798227
 42
-0.0938849627448073
 10
-620.1461162039485
 20
-29.99999999996726
 10
-664.8538837952947
 20
-29.99999999996726
 42
-0.0938849627448043
 10
-665.1464865920424
 20
-29.94456940798227
 10
-670.041825727123
 20
-28.0207864719614
 42
0.0938849627448013
 10
-670.1515517758962
 20
-27.99999999996726
 10
-714.848448223347
 20
-27.99999999996726
 42
0.0938849627448058
 10
-714.9581742721202
 20
-28.0207864719614
 10
-719.853513407259
 20
-29.94456940798227
 42
-0.093884962744804
 10
-720.1461162039485
 20
-29.99999999996726
 10
-764.8538837952947
 20
-29.99999999996726
 42
-0.0938849627448043
 10
-765.1464865920424
 20
-29.94456940798227
 10
-770.041825727123
 20
-28.0207864719614
 42
0.0938849627448034
 10
-770.1515517758962
 20
-27.99999999996726
 10
-814.848448223347
 20
-27.99999999996726
 42
0.0938849627448058
 10
-814.9581742721203
 20
-28.0207864719614
 10
-819.853513407259
 20
-29.94456940798227
 42
-0.093884962744804
 10
-820.1461162039485
 20
-29.99999999996726
 10
-864.8538837952946
 20
-29.99999999996726
 42
-0.0938849627448048
 10
-865.1464865920425
 20
-29.94456940798227
 10
-870.041825727123
 20
-28.0207864719614
 42
0.0938849627448049
 10
-870.1515517758961
 20
-27.99999999996726
 10
-914.848448223347
 20
-27.99999999996726
 42
0.0938849627448045
 10
-914.9581742721203
 20
-28.0207864719614
 10
-919.853513407259
 20
-29.94456940798227
 42
-0.0938849627448035
 10
-920.1461162039485
 20
-29.99999999996726
 10
-964.8538837952946
 20
-29.99999999996726
 42
-0.0938849627448041
 10
-965.1464865920425
 20
-29.94456940798227
 10
-970.041825727123
 20
-28.0207864719614
 42
0.0938849627448049
 10
-970.1515517758961
 20
-27.99999999996726
 10
-1014.848448223347
 20
-27.99999999996726
 42
0.0938849627448045
 10
-1014.95817427212
 20
-28.0207864719614
 10
-1019.853513407259
 20
-29.94456940798227
 42
-0.0938849627448041
 10
-1020.146116203948
 20
-29.99999999996726
 10
-1064.853883795294
 20
-29.99999999996726
 42
-0.0938849627448041
 10
-1065.146486592042
 20
-29.94456940798227
 10
-1070.041825727123
 20
-28.0207864719614
 42
0.0938849627448049
 10
-1070.151551775896
 20
-27.99999999996726
 10
-1114.848448223347
 20
-27.99999999996726
 42
0.0938849627448045
 10
-1114.95817427212
 20
-28.0207864719614
 10
-1119.853513407259
 20
-29.94456940798227
 42
-0.0938849627448041
 10
-1120.146116203948
 20
-29.99999999996726
 10
-1161.999999999622
 20
-29.99999999995452
 42
-0.9999999999999998
 10
-1161.999999999622
 20
-21.99999999995453
 10
-1147.999999999621
 20
-21.99999999995453
 42
0.4142135623730951
 10
-1145.999999999621
 20
-19.99999999995452
 10
-1145.999999999621
 20
-17.32175248463682
 42
-0.3888787318369586
 10
-1144.17431148517
 20
-15.32936308846183
 10
-1139.163459361792
 20
-14.89097033306279
1001
AcDbBlockRepETag
1070
     1
1071
        6
1005
0
  0
LINE
  5
24C
330
242
100
AcDbEntity
  8
0
100
AcDbLine
 10
-1145.999999999621
 20
17.32175248472413
 30
0.0
 11
-1145.999999999621
 21
16.69791246169916
 31
0.0
  0
LINE
  5
24D
330
242
100
AcDbEntity
  8
0
100
AcDbLine
 10
-1145.999999999621
 20
-16.69439238371342
 30
0.0
 11
-1145.999999999621
 21
-17.32175248466774
 31
0.0
  0
LINE
  5
24E
330
242
100
AcDbEntity
  8
0
100
AcDbLine
 10
-3.806662004644749
 20
14.89358437477313
 30
0.0
 11
-3.858955450268695
 21
15.49130119362416
 31
0.0
  0
LWPOLYLINE
  5
24F
330
242
100
AcDbEntity
  8
0
100
AcDbPolyline
 90
        4
 70
     0
 43
0.0
 10
-1145.999999999883
 20
16.69791246124623
 10
-1148.999999999621
 20
11.50176003899287
 10
-1148.999999999621
 20
-11.49823996100713
 10
-1145.999999999883
 20
-16.69439238326049
  0
ENDBLK
  5
250
330
242
100
AcDbEntity
  8
0
100
AcDbBlockEnd
  0
BLOCK
  5
817
330
816
100
AcDbEntity
  8
0
100
AcDbBlockBegin
  2
Vijs
 70
     0
 10
0.0
 20
0.0
 30
0.0
  3
Vijs
  1

  0
LINE
  5
818
330
816
100
AcDbEntity
  8
0
100
AcDbLine
 10
3.842106180269701
 20
0.0
 30
0.0
 11
3.600057449923497
 21
-119.0354989657789
 31
0.0
1001
AcDbBlockRepETag
1070
     1
1071
        0
1005
818
  0
LINE
  5
819
330
816
100
AcDbEntity
  8
0
100
AcDbLine
 10
-3.842600807639692
 20
0.0
 30
0.0
 11
-3.599999999999909
 21
-118.5858527735254
 31
0.0
1001
AcDbBlockRepETag
1070
     1
1071
        1
1005
819
  0
LINE
  5
81A
330
816
100
AcDbEntity
  8
0
  6
0
 62
     7
100
AcDbLine
 10
-3.599937345111811
 20
-125.3354064098821
 30
0.0
 11
-3.599880737028342
 21
-127.1358687001338
 31
0.0
1001
AcDbBlockRepETag
1070
     1
1071
        2
1005
81A
  0
LINE
  5
81B
330
816
100
AcDbEntity
  8
0
  6
0
 62
     7
100
AcDbLine
 10
3.600036085020747
 20
-126.235882489811
 30
0.0
 11
3.600121544629928
 21
-124.4354320369311
 31
0.0
1001
AcDbBlockRepETag
1070
     1
1071
        3
1005
81B
  0
LINE
  5
81C
330
816
100
AcDbEntity
  8
0
  6
0
 62
     7
100
AcDbLine
 10
-3.599688452908139
 20
-143.335667913605
 30
0.0
 11
-3.599688452908139
 21
-156.8362097352073
 31
0.0
1001
AcDbBlockRepETag
1070
     1
1071
        4
1005
81C
  0
LINE
  5
81D
330
816
100
AcDbEntity
  8
0
  6
0
 62
     7
100
AcDbLine
 10
3.600286412236982
 20
-144.236144113107
 30
0.0
 11
3.60022836914095
 21
-142.4356817032676
 31
0.0
1001
AcDbBlockRepETag
1070
     1
1071
        5
1005
81D
  0
LWPOLYLINE
  5
81E
330
816
100
AcDbEntity
  8
0
  6
0
 62
     7
100
AcDbPolyline
 90
        2
 70
     0
 43
0.0
 10
-1.799603775260493
 20
-150.5357614025706
 42
0.302775204182
 10
-3.599617664579
 20
-154.1355292731168
1001
AcDbBlockRepETag
1070
     1
1071
        6
1005
81E
  0
LINE
  5
81F
330
816
100
AcDbEntity
  8
0
  6
0
 62
     7
100
AcDbLine
 10
3.600320522356469
 20
-146.0351595387619
 30
0.0
 11
3.600448711769331
 21
-156.8350256810808
 31
0.0
1001
AcDbBlockRepETag
1070
     1
1071
        7
1005
81F
  0
LWPOLYLINE
  5
820
330
816
100
AcDbEntity
  8
0
  6
0
 62
     7
100
AcDbPolyline
 90
        2
 70
     0
 43
0.0
 10
3.600491441589383
 20
-155.9348004546336
 42
0.253336250782
 10
1.433533502195587
 20
-157.0706305073981
1001
AcDbBlockRepETag
1070
     1
1071
        8
1005
820
  0
LWPOLYLINE
  5
821
330
816
100
AcDbEntity
  8
0
  6
0
 62
     7
100
AcDbPolyline
 90
        2
 70
     0
 43
0.0
 10
2.250398040948766
 20
-150.5350890947156
 42
0.340405225754
 10
-1.799603775260493
 20
-150.5357614025706
1001
AcDbBlockRepETag
1070
     1
1071
        9
1005
821
  0
LINE
  5
822
330
816
100
AcDbEntity
  8
0
  6
0
 62
     7
100
AcDbLine
 10
4.500373222615507
 20
-145.1347857077198
 30
0.0
 11
3.600286412236982
 21
-144.236144113107
 31
0.0
1001
AcDbBlockRepETag
1070
     1
1071
       10
1005
822
  0
LINE
  5
823
330
816
100
AcDbEntity
  8
0
  6
0
 62
     7
100
AcDbLine
 10
3.600320522356469
 20
-146.0351595387619
 30
0.0
 11
4.500373222615507
 21
-145.1347857077198
 31
0.0
1001
AcDbBlockRepETag
1070
     1
1071
       11
1005
823
  0
LINE
  5
824
330
816
100
AcDbEntity
  8
0
  6
0
 62
     7
100
AcDbLine
 10
0.4503380749952158
 20
-145.5848471367062
 30
0.0
 11
4.500373222615507
 21
-145.1347857077198
 31
0.0
1001
AcDbBlockRepETag
1070
     1
1071
       12
1005
824
  0
LINE
  5
825
330
816
100
AcDbEntity
  8
0
  6
0
 62
     7
100
AcDbLine
 10
0.4503380749952158
 20
-145.5848471367062
 30
0.0
 11
3.600320522356469
 21
-146.0351595387619
 31
0.0
1001
AcDbBlockRepETag
1070
     1
1071
       13
1005
825
  0
LINE
  5
826
330
816
100
AcDbEntity
  8
0
  6
0
 62
     7
100
AcDbLine
 10
0.4503380749952158
 20
-145.5848471367062
 30
0.0
 11
3.600286412236982
 21
-144.236144113107
 31
0.0
1001
AcDbBlockRepETag
1070
     1
1071
       14
1005
826
  0
LINE
  5
827
330
816
100
AcDbEntity
  8
0
  6
0
 62
     7
100
AcDbLine
 10
4.500075077023666
 20
-127.135965090114
 30
0.0
 11
-4.499877471198942
 21
-128.0362471944099
 31
0.0
1001
AcDbBlockRepETag
1070
     1
1071
       15
1005
827
  0
LINE
  5
828
330
816
100
AcDbEntity
  8
0
  6
0
 62
     7
100
AcDbLine
 10
-4.499877471198942
 20
-128.0362471944099
 30
0.0
 11
-3.599880737028342
 21
-127.1358687001338
 31
0.0
1001
AcDbBlockRepETag
1070
     1
1071
       16
1005
828
  0
LINE
  5
829
330
816
100
AcDbEntity
  8
0
  6
0
 62
     7
100
AcDbLine
 10
-3.599908795536521
 20
-128.9363239357917
 30
0.0
 11
-4.499877471198942
 21
-128.0362471944099
 31
0.0
1001
AcDbBlockRepETag
1070
     1
1071
       17
1005
829
  0
LINE
  5
82A
330
816
100
AcDbEntity
  8
0
  6
0
 62
     7
100
AcDbLine
 10
-3.599908795536521
 20
-128.9363239357917
 30
0.0
 11
-3.599877555473995
 21
-130.7353391223296
 31
0.0
1001
AcDbBlockRepETag
1070
     1
1071
       18
1005
82A
  0
LINE
  5
82B
330
816
100
AcDbEntity
  8
0
  6
0
 62
     7
100
AcDbLine
 10
3.600185639337269
 20
-129.8353651080979
 30
0.0
 11
3.600147219374321
 21
-129.3859700084867
 31
0.0
1001
AcDbBlockRepETag
1070
     1
1071
       19
1005
82B
  0
LINE
  5
82C
330
816
100
AcDbEntity
  8
0
  6
0
 62
     7
100
AcDbLine
 10
-3.599877555473995
 20
-130.7353391223296
 30
0.0
 11
3.600185639337269
 21
-129.8353651080979
 31
0.0
1001
AcDbBlockRepETag
1070
     1
1071
       20
1005
82C
  0
LINE
  5
82D
330
816
100
AcDbEntity
  8
0
  6
0
 62
     7
100
AcDbLine
 10
3.600185639337269
 20
-129.8353651080979
 30
0.0
 11
4.500152879988036
 21
-130.7354417299211
 31
0.0
1001
AcDbBlockRepETag
1070
     1
1071
       21
1005
82D
  0
LINE
  5
82E
330
816
100
AcDbEntity
  8
0
  6
0
 62
     7
100
AcDbLine
 10
-3.599880737028342
 20
-127.1358687001338
 30
0.0
 11
3.600036085020747
 21
-126.235882489811
 31
0.0
1001
AcDbBlockRepETag
1070
     1
1071
       22
1005
82E
  0
LINE
  5
82F
330
816
100
AcDbEntity
  8
0
  6
0
 62
     7
100
AcDbLine
 10
3.600079777832888
 20
-128.0363437039341
 30
0.0
 11
-3.599908795536521
 21
-128.9363239357917
 31
0.0
1001
AcDbBlockRepETag
1070
     1
1071
       23
1005
82F
  0
LINE
  5
830
330
816
100
AcDbEntity
  8
0
  6
0
 62
     7
100
AcDbLine
 10
4.500075077023666
 20
-127.135965090114
 30
0.0
 11
3.600079777832888
 21
-128.0363437039341
 31
0.0
1001
AcDbBlockRepETag
1070
     1
1071
       24
1005
830
  0
LINE
  5
831
330
816
100
AcDbEntity
  8
0
  6
0
 62
     7
100
AcDbLine
 10
3.600113887952375
 20
-129.8353591296036
 30
0.0
 11
3.600079777832888
 21
-128.0363437039341
 31
0.0
1001
AcDbBlockRepETag
1070
     1
1071
       25
1005
831
  0
LINE
  5
832
330
816
100
AcDbEntity
  8
0
  6
0
 62
     7
100
AcDbLine
 10
3.600036085020747
 20
-126.235882489811
 30
0.0
 11
4.500075077023666
 21
-127.135965090114
 31
0.0
1001
AcDbBlockRepETag
1070
     1
1071
       26
1005
832
  0
LINE
  5
833
330
816
100
AcDbEntity
  8
0
  6
0
 62
     7
100
AcDbLine
 10
4.500203266436528
 20
-137.935831232433
 30
0.0
 11
-4.49974928178517
 21
-138.8361133367143
 31
0.0
1001
AcDbBlockRepETag
1070
     1
1071
       27
1005
833
  0
LINE
  5
834
330
816
100
AcDbEntity
  8
0
  6
0
 62
     7
100
AcDbLine
 10
-4.499664303696135
 20
-142.4355905743577
 30
0.0
 11
4.500223668299895
 21
-141.535303089433
 31
0.0
1001
AcDbBlockRepETag
1070
     1
1071
       28
1005
834
  0
LINE
  5
835
330
816
100
AcDbEntity
  8
0
  6
0
 62
     7
100
AcDbLine
 10
-3.599825252458231
 20
-132.5358010538766
 30
0.0
 11
-4.499868262528707
 21
-131.6357181187923
 31
0.0
1001
AcDbBlockRepETag
1070
     1
1071
       29
1005
835
  0
LINE
  5
836
330
816
100
AcDbEntity
  8
0
  6
0
 62
     7
100
AcDbLine
 10
-4.499783571474381
 20
-135.2351953325124
 30
0.0
 11
-3.599723696056116
 21
-134.3348220993211
 31
0.0
1001
AcDbBlockRepETag
1070
     1
1071
       30
1005
836
  0
LINE
  5
837
330
816
100
AcDbEntity
  8
0
  6
0
 62
     7
100
AcDbLine
 10
-3.599809155698039
 20
-136.1352725521865
 30
0.0
 11
-4.499783571474381
 21
-135.2351953325124
 31
0.0
1001
AcDbBlockRepETag
1070
     1
1071
       31
1005
837
  0
LINE
  5
838
330
816
100
AcDbEntity
  8
0
  6
0
 62
     7
100
AcDbLine
 10
-4.49974928178517
 20
-138.8361133367143
 30
0.0
 11
-3.599752547614571
 21
-137.9357348424382
 31
0.0
1001
AcDbBlockRepETag
1070
     1
1071
       32
1005
838
  0
LINE
  5
839
330
816
100
AcDbEntity
  8
0
  6
0
 62
     7
100
AcDbLine
 10
-3.599780606122749
 20
-139.7361900781106
 30
0.0
 11
-4.49974928178517
 21
-138.8361133367143
 31
0.0
1001
AcDbBlockRepETag
1070
     1
1071
       33
1005
839
  0
LINE
  5
83A
330
816
100
AcDbEntity
  8
0
  6
0
 62
     7
100
AcDbLine
 10
-4.499664303696135
 20
-142.4355905743577
 30
0.0
 11
-3.599746496002353
 21
-141.535205503751
 31
0.0
1001
AcDbBlockRepETag
1070
     1
1071
       34
1005
83A
  0
LINE
  5
83B
330
816
100
AcDbEntity
  8
0
  6
0
 62
     7
100
AcDbLine
 10
-4.499783571474381
 20
-135.2351953325124
 30
0.0
 11
4.500245033202645
 21
-134.3349195654155
 31
0.0
1001
AcDbBlockRepETag
1070
     1
1071
       35
1005
83B
  0
LINE
  5
83C
330
816
100
AcDbEntity
  8
0
  6
0
 62
     7
100
AcDbLine
 10
-3.599688452908139
 20
-143.335667913605
 30
0.0
 11
-4.499664303696135
 21
-142.4355905743577
 31
0.0
1001
AcDbBlockRepETag
1070
     1
1071
       36
1005
83C
  0
LINE
  5
83D
330
816
100
AcDbEntity
  8
0
  6
0
 62
     7
100
AcDbLine
 10
-3.599780606122749
 20
-139.7361900781106
 30
0.0
 11
-3.599746496002353
 21
-141.535205503751
 31
0.0
1001
AcDbBlockRepETag
1070
     1
1071
       37
1005
83D
  0
LINE
  5
83E
330
816
100
AcDbEntity
  8
0
  6
0
 62
     7
100
AcDbLine
 10
-3.599809155698039
 20
-136.1352725521865
 30
0.0
 11
-3.599752547614571
 21
-137.9357348424382
 31
0.0
1001
AcDbBlockRepETag
1070
     1
1071
       38
1005
83E
  0
LINE
  5
83F
330
816
100
AcDbEntity
  8
0
  6
0
 62
     7
100
AcDbLine
 10
-3.599825252458231
 20
-132.5358010538766
 30
0.0
 11
-3.599723696056116
 21
-134.3348220993211
 31
0.0
1001
AcDbBlockRepETag
1070
     1
1071
       39
1005
83F
  0
LINE
  5
840
330
816
100
AcDbEntity
  8
0
  6
0
 62
     7
100
AcDbLine
 10
3.600263442300729
 20
-133.4348417478904
 30
0.0
 11
3.600100179728087
 21
-131.6358155609632
 31
0.0
1001
AcDbBlockRepETag
1070
     1
1071
       40
1005
840
  0
LINE
  5
841
330
816
100
AcDbEntity
  8
0
  6
0
 62
     7
100
AcDbLine
 10
3.600164274434519
 20
-137.0357486321154
 30
0.0
 11
3.6002497340437
 21
-135.2352981792501
 31
0.0
1001
AcDbBlockRepETag
1070
     1
1071
       41
1005
841
  0
LINE
  5
842
330
816
100
AcDbEntity
  8
0
  6
0
 62
     7
100
AcDbLine
 10
3.600242077366146
 20
-140.635225271908
 30
0.0
 11
3.60020796724666
 21
-138.836209846253
 31
0.0
1001
AcDbBlockRepETag
1070
     1
1071
       42
1005
842
  0
LINE
  5
843
330
816
100
AcDbEntity
  8
0
  6
0
 62
     7
100
AcDbLine
 10
-3.599746496002353
 20
-141.535205503751
 30
0.0
 11
3.600242077366146
 21
-140.635225271908
 31
0.0
1001
AcDbBlockRepETag
1070
     1
1071
       43
1005
843
  0
LINE
  5
844
330
816
100
AcDbEntity
  8
0
  6
0
 62
     7
100
AcDbLine
 10
3.60020796724666
 20
-138.836209846253
 30
0.0
 11
-3.599780606122749
 21
-139.7361900781106
 31
0.0
1001
AcDbBlockRepETag
1070
     1
1071
       44
1005
844
  0
LINE
  5
845
330
816
100
AcDbEntity
  8
0
  6
0
 62
     7
100
AcDbLine
 10
-3.599752547614571
 20
-137.9357348424382
 30
0.0
 11
3.600164274434519
 21
-137.0357486321154
 31
0.0
1001
AcDbBlockRepETag
1070
     1
1071
       45
1005
845
  0
LINE
  5
846
330
816
100
AcDbEntity
  8
0
  6
0
 62
     7
100
AcDbLine
 10
3.6002497340437
 20
-135.2352981792501
 30
0.0
 11
-3.599809155698039
 21
-136.1352725521865
 31
0.0
1001
AcDbBlockRepETag
1070
     1
1071
       46
1005
846
  0
LINE
  5
847
330
816
100
AcDbEntity
  8
0
  6
0
 62
     7
100
AcDbLine
 10
-3.599723696056116
 20
-134.3348220993211
 30
0.0
 11
3.600263442300729
 21
-133.4348417478904
 31
0.0
1001
AcDbBlockRepETag
1070
     1
1071
       47
1005
847
  0
LINE
  5
848
330
816
100
AcDbEntity
  8
0
  6
0
 62
     7
100
AcDbLine
 10
3.600100179728087
 20
-131.6358155609632
 30
0.0
 11
-3.599825252458231
 21
-132.5358010538766
 31
0.0
1001
AcDbBlockRepETag
1070
     1
1071
       48
1005
848
  0
LINE
  5
849
330
816
100
AcDbEntity
  8
0
  6
0
 62
     7
100
AcDbLine
 10
4.500223668299895
 20
-141.535303089433
 30
0.0
 11
3.60022836914095
 21
-142.4356817032676
 31
0.0
1001
AcDbBlockRepETag
1070
     1
1071
       49
1005
849
  0
LINE
  5
84A
330
816
100
AcDbEntity
  8
0
  6
0
 62
     7
100
AcDbLine
 10
3.600242077366146
 20
-140.635225271908
 30
0.0
 11
4.500223668299895
 21
-141.535303089433
 31
0.0
1001
AcDbBlockRepETag
1070
     1
1071
       50
1005
84A
  0
LINE
  5
84B
330
816
100
AcDbEntity
  8
0
  6
0
 62
     7
100
AcDbLine
 10
4.500203266436528
 20
-137.935831232433
 30
0.0
 11
3.60020796724666
 21
-138.836209846253
 31
0.0
1001
AcDbBlockRepETag
1070
     1
1071
       51
1005
84B
  0
LINE
  5
84C
330
816
100
AcDbEntity
  8
0
  6
0
 62
     7
100
AcDbLine
 10
3.600164274434519
 20
-137.0357486321154
 30
0.0
 11
4.500203266436528
 21
-137.935831232433
 31
0.0
1001
AcDbBlockRepETag
1070
     1
1071
       52
1005
84C
  0
LINE
  5
84D
330
816
100
AcDbEntity
  8
0
  6
0
 62
     7
100
AcDbLine
 10
4.500245033202645
 20
-134.3349195654155
 30
0.0
 11
3.6002497340437
 21
-135.2352981792501
 31
0.0
1001
AcDbBlockRepETag
1070
     1
1071
       53
1005
84D
  0
LINE
  5
84E
330
816
100
AcDbEntity
  8
0
  6
0
 62
     7
100
AcDbLine
 10
3.600263442300729
 20
-133.4348417478904
 30
0.0
 11
4.500245033202645
 21
-134.3349195654155
 31
0.0
1001
AcDbBlockRepETag
1070
     1
1071
       54
1005
84E
  0
LINE
  5
84F
330
816
100
AcDbEntity
  8
0
  6
0
 62
     7
100
AcDbLine
 10
3.60022836914095
 20
-142.4356817032676
 30
0.0
 11
-3.599688452908139
 21
-143.335667913605
 31
0.0
1001
AcDbBlockRepETag
1070
     1
1071
       55
1005
84F
  0
LINE
  5
850
330
816
100
AcDbEntity
  8
0
  6
0
 62
     7
100
AcDbLine
 10
-4.499868262528707
 20
-131.6357181187923
 30
0.0
 11
-3.599877555473995
 21
-130.7353391223296
 31
0.0
1001
AcDbBlockRepETag
1070
     1
1071
       56
1005
850
  0
LINE
  5
851
330
816
100
AcDbEntity
  8
0
  6
0
 62
     7
100
AcDbLine
 10
4.500152879988036
 20
-130.7354417299211
 30
0.0
 11
-4.499868262528707
 21
-131.6357181187923
 31
0.0
1001
AcDbBlockRepETag
1070
     1
1071
       57
1005
851
  0
LINE
  5
852
330
816
100
AcDbEntity
  8
0
  6
0
 62
     7
100
AcDbLine
 10
4.500152879988036
 20
-130.7354417299211
 30
0.0
 11
3.600100179728087
 21
-131.6358155609632
 31
0.0
1001
AcDbBlockRepETag
1070
     1
1071
       58
1005
852
  0
LINE
  5
853
330
816
100
AcDbEntity
  8
0
  6
0
 62
     7
100
AcDbLine
 10
0.9004395232800561
 20
-161.3351721654617
 30
0.0
 11
2.250398040933305
 21
-150.5350890947156
 31
0.0
1001
AcDbBlockRepETag
1070
     1
1071
       59
1005
853
  0
LINE
  5
854
330
816
100
AcDbEntity
  8
0
  6
0
 62
     7
100
AcDbLine
 10
0.9004395232800561
 20
-161.3351721654617
 30
0.0
 11
3.600448711769331
 21
-156.8350256810808
 31
0.0
1001
AcDbBlockRepETag
1070
     1
1071
       60
1005
854
  0
LINE
  5
855
330
816
100
AcDbEntity
  8
0
  6
0
 62
     7
100
AcDbLine
 10
-3.599688452908139
 20
-156.8362097352073
 30
0.0
 11
0.9004395232800561
 21
-161.3351721654617
 31
0.0
1001
AcDbBlockRepETag
1070
     1
1071
       61
1005
855
  0
LINE
  5
856
330
816
100
AcDbEntity
  8
0
  6
0
 62
     7
100
AcDbLine
 10
4.500024690574264
 20
-119.9355755876022
 30
0.0
 11
-4.499996451942479
 21
-120.8358519764733
 31
0.0
1001
AcDbBlockRepETag
1070
     1
1071
       62
1005
856
  0
LINE
  5
857
330
816
100
AcDbEntity
  8
0
  6
0
 62
     7
100
AcDbLine
 10
-4.499996451942479
 20
-120.8358519764733
 30
0.0
 11
-3.600005744887766
 21
-119.9354729800107
 31
0.0
1001
AcDbBlockRepETag
1070
     1
1071
       63
1005
857
  0
LINE
  5
858
330
816
100
AcDbEntity
  8
0
  6
0
 62
     7
100
AcDbLine
 10
-3.600005744887766
 20
-119.9354729800107
 30
0.0
 11
3.600057449923497
 21
-119.0354989657789
 31
0.0
1001
AcDbBlockRepETag
1070
     1
1071
       64
1005
858
  0
LINE
  5
859
330
816
100
AcDbEntity
  8
0
  6
0
 62
     7
100
AcDbLine
 10
-3.599999999999909
 20
-118.5858527735254
 30
0.0
 11
-3.600005744887766
 21
-119.9354729800107
 31
0.0
1001
AcDbBlockRepETag
1070
     1
1071
       65
1005
859
  0
LINE
  5
85A
330
816
100
AcDbEntity
  8
0
  6
0
 62
     7
100
AcDbLine
 10
3.600057449923497
 20
-119.0354989657789
 30
0.0
 11
4.500024690574264
 21
-119.9355755876022
 31
0.0
1001
AcDbBlockRepETag
1070
     1
1071
       66
1005
85A
  0
LINE
  5
85B
330
816
100
AcDbEntity
  8
0
  6
0
 62
     7
100
AcDbLine
 10
4.500024690574264
 20
-119.9355755876022
 30
0.0
 11
3.599971990314315
 21
-120.8359494186588
 31
0.0
1001
AcDbBlockRepETag
1070
     1
1071
       67
1005
85B
  0
LINE
  5
85C
330
816
100
AcDbEntity
  8
0
  6
0
 62
     7
100
AcDbLine
 10
-3.599953441872003
 20
-121.7359349115577
 30
0.0
 11
-4.499996451942479
 21
-120.8358519764733
 31
0.0
1001
AcDbBlockRepETag
1070
     1
1071
       68
1005
85C
  0
LINE
  5
85D
330
816
100
AcDbEntity
  8
0
  6
0
 62
     7
100
AcDbLine
 10
3.600135252887866
 20
-122.634975605586
 30
0.0
 11
3.599971990314315
 21
-120.8359494186588
 31
0.0
1001
AcDbBlockRepETag
1070
     1
1071
       69
1005
85D
  0
LINE
  5
85E
330
816
100
AcDbEntity
  8
0
  6
0
 62
     7
100
AcDbLine
 10
3.599971990314315
 20
-120.8359494186588
 30
0.0
 11
-3.599953441872003
 21
-121.7359349115577
 31
0.0
1001
AcDbBlockRepETag
1070
     1
1071
       70
1005
85E
  0
LINE
  5
85F
330
816
100
AcDbEntity
  8
0
  6
0
 62
     7
100
AcDbLine
 10
-4.499911760887243
 20
-124.435329190208
 30
0.0
 11
4.500116843788873
 21
-123.5350534230965
 31
0.0
1001
AcDbBlockRepETag
1070
     1
1071
       71
1005
85F
  0
LINE
  5
860
330
816
100
AcDbEntity
  8
0
  6
0
 62
     7
100
AcDbLine
 10
-4.499911760887243
 20
-124.435329190208
 30
0.0
 11
-3.599851885469888
 21
-123.5349559570022
 31
0.0
1001
AcDbBlockRepETag
1070
     1
1071
       72
1005
860
  0
LINE
  5
861
330
816
100
AcDbEntity
  8
0
  6
0
 62
     7
100
AcDbLine
 10
-3.599937345111811
 20
-125.3354064098821
 30
0.0
 11
-4.499911760887243
 21
-124.435329190208
 31
0.0
1001
AcDbBlockRepETag
1070
     1
1071
       73
1005
861
  0
LINE
  5
862
330
816
100
AcDbEntity
  8
0
  6
0
 62
     7
100
AcDbLine
 10
4.500116843788873
 20
-123.5350534230965
 30
0.0
 11
3.600121544629928
 21
-124.4354320369311
 31
0.0
1001
AcDbBlockRepETag
1070
     1
1071
       74
1005
862
  0
LINE
  5
863
330
816
100
AcDbEntity
  8
0
  6
0
 62
     7
100
AcDbLine
 10
3.600121544629928
 20
-124.4354320369311
 30
0.0
 11
-3.599937345111811
 21
-125.3354064098821
 31
0.0
1001
AcDbBlockRepETag
1070
     1
1071
       75
1005
863
  0
LINE
  5
864
330
816
100
AcDbEntity
  8
0
  6
0
 62
     7
100
AcDbLine
 10
-3.599953441872003
 20
-121.7359349115577
 30
0.0
 11
-3.599851885469888
 21
-123.5349559570022
 31
0.0
1001
AcDbBlockRepETag
1070
     1
1071
       76
1005
864
  0
LINE
  5
865
330
816
100
AcDbEntity
  8
0
  6
0
 62
     7
100
AcDbLine
 10
-3.599851885469888
 20
-123.5349559570022
 30
0.0
 11
3.600135252887866
 21
-122.634975605586
 31
0.0
1001
AcDbBlockRepETag
1070
     1
1071
       77
1005
865
  0
LINE
  5
866
330
816
100
AcDbEntity
  8
0
  6
0
 62
     7
100
AcDbLine
 10
3.600135252887866
 20
-122.634975605586
 30
0.0
 11
4.500116843788873
 21
-123.5350534230965
 31
0.0
1001
AcDbBlockRepETag
1070
     1
1071
       78
1005
866
  0
LINE
  5
867
330
816
100
AcDbEntity
  8
0
  6
Continuous
 62
     0
100
AcDbLine
 10
-14.74087911430661
 20
5.157082385878311
 30
0.0
 11
-10.63852184659618
 21
6.950078878813656
 31
0.0
1001
AcDbBlockRepETag
1070
     1
1071
       79
1005
867
  0
LINE
  5
868
330
816
100
AcDbEntity
  8
0
  6
Continuous
 62
     0
100
AcDbLine
 10
-14.74087911430661
 20
3.03110238588124
 30
0.0
 11
14.73937688569322
 21
3.03110238588124
 31
0.0
1001
AcDbBlockRepETag
1070
     1
1071
       80
1005
868
  0
LINE
  5
869
330
816
100
AcDbEntity
  8
0
  6
Continuous
 62
     0
100
AcDbLine
 10
-14.74087911430661
 20
5.157082385878311
 30
0.0
 11
14.73937688569322
 21
5.157082385878311
 31
0.0
1001
AcDbBlockRepETag
1070
     1
1071
       81
1005
869
  0
LINE
  5
86A
330
816
100
AcDbEntity
  8
0
  6
Continuous
 62
     0
100
AcDbLine
 10
-14.74087911430661
 20
3.03110238588124
 30
0.0
 11
-14.74087911430661
 21
5.157082385878311
 31
0.0
1001
AcDbBlockRepETag
1070
     1
1071
       82
1005
86A
  0
ARC
  5
86B
330
816
100
AcDbEntity
  8
0
  6
Continuous
 62
     0
100
AcDbCircle
 10
-0.0007511143062402
 20
-1.646053614123957
 30
0.0
 40
18.42515999999999
100
AcDbArc
 50
73.00000000004075
 51
106.9999999999592
1001
AcDbBlockRepETag
1070
     1
1071
       83
1005
86B
  0
ARC
  5
86C
330
816
100
AcDbEntity
  8
0
  6
Continuous
 62
     0
100
AcDbCircle
 10
7.977577165225284
 20
11.87877109996043
 30
0.0
 40
4.900335285924
100
AcDbArc
 50
57.13278000007286
 51
122.8672199999271
1001
AcDbBlockRepETag
1070
     1
1071
       84
1005
86C
  0
LINE
  5
86D
330
816
100
AcDbEntity
  8
0
  6
Continuous
 62
     0
100
AcDbLine
 10
-7.979079393838674
 20
16.77910638588946
 30
0.0
 11
7.977577165225284
 21
16.77910638588946
 31
0.0
1001
AcDbBlockRepETag
1070
     1
1071
       85
1005
86D
  0
LINE
  5
86E
330
816
100
AcDbEntity
  8
0
  6
Continuous
 62
     0
100
AcDbLine
 10
14.73937688569322
 20
5.157082385878311
 30
0.0
 11
10.63701961798369
 21
6.950078878813656
 31
0.0
1001
AcDbBlockRepETag
1070
     1
1071
       86
1005
86E
  0
LINE
  5
86F
330
816
100
AcDbEntity
  8
0
100
AcDbLine
 10
13.37209405718522
 20
0.0
 30
0.0
 11
13.37209405718522
 21
3.03110238588124
 31
0.0
1001
AcDbBlockRepETag
1070
     1
1071
       87
1005
86F
  0
LINE
  5
870
330
816
100
AcDbEntity
  8
0
  6
Continuous
 62
     0
100
AcDbLine
 10
14.73937688569322
 20
3.03110238588124
 30
0.0
 11
14.73937688569322
 21
5.157082385878311
 31
0.0
1001
AcDbBlockRepETag
1070
     1
1071
       88
1005
870
  0
LINE
  5
871
330
816
100
AcDbEntity
  8
0
100
AcDbLine
 10
-5.187501118987256
 20
3.03110238588124
 30
0.0
 11
5.185998890374776
 21
3.03110238588124
 31
0.0
1001
AcDbBlockRepETag
1070
     1
1071
       89
1005
871
  0
LINE
  5
872
330
816
100
AcDbEntity
  8
0
100
AcDbLine
 10
-13.37209405718522
 20
0.0
 30
0.0
 11
13.37209405718522
 21
0.0
 31
0.0
1001
AcDbBlockRepETag
1070
     1
1071
       90
1005
872
  0
LINE
  5
873
330
816
100
AcDbEntity
  8
0
100
AcDbLine
 10
8.921742942878609
 20
3.03110238588124
 30
0.0
 11
-0.0007511143062402
 21
3.03110238588124
 31
0.0
1001
AcDbBlockRepETag
1070
     1
1071
       91
1005
873
  0
ARC
  5
874
330
816
100
AcDbEntity
  8
0
  6
Continuous
 62
     0
100
AcDbCircle
 10
7.977577165225284
 20
2.83428506317432
 30
0.0
 40
4.900335285924
100
AcDbArc
 50
57.13278000007286
 51
122.8672199999271
1001
AcDbBlockRepETag
1070
     1
1071
       92
1005
874
  0
LINE
  5
875
330
816
100
AcDbEntity
  8
0
  6
Continuous
 62
     0
100
AcDbLine
 10
5.318133791209675
 20
6.950078878813656
 30
0.0
 11
5.318133791209675
 21
15.99456491559976
 31
0.0
1001
AcDbBlockRepETag
1070
     1
1071
       93
1005
875
  0
LINE
  5
876
330
816
100
AcDbEntity
  8
0
  6
Continuous
 62
     0
100
AcDbLine
 10
-5.319636019822155
 20
6.950078878813656
 30
0.0
 11
-5.319636019822155
 21
15.99456491559976
 31
0.0
1001
AcDbBlockRepETag
1070
     1
1071
       94
1005
876
  0
ARC
  5
877
330
816
100
AcDbEntity
  8
0
  6
Continuous
 62
     0
100
AcDbCircle
 10
-0.0007511143062402
 20
-10.69053965089551
 30
0.0
 40
18.42515999999999
100
AcDbArc
 50
72.87999999994276
 51
106.778649999909
1001
AcDbBlockRepETag
1070
     1
1071
       95
1005
877
  0
LINE
  5
878
330
816
100
AcDbEntity
  8
0
  6
Continuous
 62
     0
100
AcDbLine
 10
10.63701961798369
 20
6.950078878813656
 30
0.0
 11
10.63701961798369
 21
15.99456491559976
 31
0.0
1001
AcDbBlockRepETag
1070
     1
1071
       96
1005
878
  0
LINE
  5
879
330
816
100
AcDbEntity
  8
0
100
AcDbLine
 10
-13.37209405718522
 20
0.0
 30
0.0
 11
-13.37209405718522
 21
3.03110238588124
 31
0.0
1001
AcDbBlockRepETag
1070
     1
1071
       97
1005
879
  0
LINE
  5
87A
330
816
100
AcDbEntity
  8
0
  6
Continuous
 62
     0
100
AcDbLine
 10
-10.63852184659618
 20
6.950078878813656
 30
0.0
 11
-10.63852184659618
 21
15.99456491559976
 31
0.0
1001
AcDbBlockRepETag
1070
     1
1071
       98
1005
87A
  0
ARC
  5
87B
330
816
100
AcDbEntity
  8
0
  6
Continuous
 62
     0
100
AcDbCircle
 10
-7.979079393838674
 20
2.83428506317432
 30
0.0
 40
4.900335285924
100
AcDbArc
 50
57.13278000007286
 51
122.8672199999271
1001
AcDbBlockRepETag
1070
     1
1071
       99
1005
87B
  0
LINE
  5
87C
330
816
100
AcDbEntity
  8
0
100
AcDbLine
 10
-13.37209405718522
 20
3.03110238588124
 30
0.0
 11
-5.593450946451866
 21
3.03110238588124
 31
0.0
1001
AcDbBlockRepETag
1070
     1
1071
      100
1005
87C
  0
ARC
  5
87D
330
816
100
AcDbEntity
  8
0
  6
Continuous
 62
     0
100
AcDbCircle
 10
-7.979079393838674
 20
11.87877109996043
 30
0.0
 40
4.900335285924
100
AcDbArc
 50
57.13278000007286
 51
122.8672199999271
1001
AcDbBlockRepETag
1070
     1
1071
      101
1005
87D
  0
ENDBLK
  5
87E
330
816
100
AcDbEntity
  8
0
100
AcDbBlockEnd
  0
BLOCK
  5
880
330
87F
100
AcDbEntity
  8
0
100
AcDbBlockBegin
  2
mousse 40 M500 basis 02
 70
     0
 10
0.0
 20
0.0
 30
0.0
  3
mousse 40 M500 basis 02
  1

  0
HATCH
  5
881
330
87F
100
AcDbEntity
  8
mousse
100
AcDbHatch
 10
0.0
 20
0.0
 30
0.0
210
0.0
220
0.0
230
1.0
  2
ANSI37
 70
     0
 71
     1
 91
        1
 92
        1
 93
       18
 72
     1
 10
-2.0
 20
11.49823996104533
 11
-1.999999999996362
 21
9.375644347018351
 72
     2
 10
-6.999999999996092
 20
9.375644347018246
 40
4.99999999999973
 50
359.9999999999988
 51
390.0000000000004
 73
     0
 72
     1
 10
-2.669872981074149
 20
6.875644347018351
 11
-4.330127018918574
 21
3.99999999999909
 72
     2
 10
0.0000000000029088
 20
1.499999999999318
 40
4.99999999999927
 50
149.9999999999982
 51
180.0000000000339
 73
     1
 72
     1
 10
-4.999999999996362
 20
1.499999999996362
 11
-4.999999999996362
 21
-1.499999999996362
 72
     2
 10
0.000000000004027
 20
-1.500000000000838
 40
5.000000000000389
 50
179.9999999999487
 51
209.9999999999984
 73
     1
 72
     1
 10
-4.330127018918574
 20
-4.000000000000909
 11
-2.669872981077787
 21
-6.875644347026536
 72
     2
 10
-6.999999999999884
 20
-9.375644347026472
 40
4.999999999999884
 50
330.0000000000001
 51
359.9999999999695
 73
     0
 72
     1
 10
-2.0
 20
-9.375644347023808
 11
-2.0
 21
-11.50176003892193
 72
     1
 10
-2.0
 20
-11.50176003892193
 11
2.32287565554725
 21
-11.50176003892193
 72
     2
 10
1.0
 20
-10.00176003892193
 40
2.0
 50
311.4096221076177
 51
360.0
 73
     1
 72
     1
 10
3.0
 20
-10.00176003892193
 11
3.0
 21
-6.69615242270629
 72
     1
 10
3.0
 20
-6.69615242270629
 11
0.0
 21
-1.5
 72
     1
 10
0.0
 20
-1.5
 11
0.0
 21
1.5
 72
     1
 10
0.0
 20
1.5
 11
3.0
 21
6.69615242270629
 72
     1
 10
3.0
 20
6.69615242270629
 11
3.0
 21
9.998239961043509
 72
     2
 10
1.0
 20
9.998239961043509
 40
2.0
 50
0.0
 51
48.59037789238229
 73
     1
 72
     1
 10
2.32287565554725
 20
11.49823996104533
 11
-2.0
 21
11.49823996104533
 97
        8
330
889
330
886
330
887
330
884
330
888
330
883
330
882
330
885
 75
     0
 76
     1
 52
0.0
 41
10.0
 77
     0
 78
     2
 53
45.0
 43
-4.999999999996362
 44
-11.50176003896013
 45
-0.8838834764831842
 46
0.8838834764831844
 79
     0
 53
135.0
 43
-4.999999999996362
 44
-11.50176003896013
 45
-0.8838834764831844
 46
-0.8838834764831842
 79
     0
 98
        1
 10
20854.30346808681
 20
6573.591633627083
1001
ACAD
1010
0.0
1020
0.0
1030
0.0
  0
ARC
  5
882
102
{ACAD_REACTORS
330
881
102
}
330
87F
100
AcDbEntity
  8
mousse
100
AcDbCircle
 10
1.0
 20
9.998239961043509
 30
0.0
 40
2.0
100
AcDbArc
 50
0.0
 51
48.59037789238229
  0
LINE
  5
883
102
{ACAD_REACTORS
330
881
102
}
330
87F
100
AcDbEntity
  8
mousse
100
AcDbLine
 10
3.0
 20
9.998239961043509
 30
0.0
 11
3.0
 21
6.69615242270629
 31
0.0
  0
LINE
  5
884
102
{ACAD_REACTORS
330
881
102
}
330
87F
100
AcDbEntity
  8
mousse
100
AcDbLine
 10
3.0
 20
-6.69615242270629
 30
0.0
 11
3.0
 21
-10.00176003892193
 31
0.0
  0
LINE
  5
885
102
{ACAD_REACTORS
330
881
102
}
330
87F
100
AcDbEntity
  8
mousse
100
AcDbLine
 10
-2.0
 20
11.49823996104533
 30
0.0
 11
2.32287565554725
 21
11.49823996104533
 31
0.0
  0
LINE
  5
886
102
{ACAD_REACTORS
330
881
102
}
330
87F
100
AcDbEntity
  8
mousse
100
AcDbLine
 10
-2.0
 20
-11.50176003892193
 30
0.0
 11
2.32287565554725
 21
-11.50176003892193
 31
0.0
  0
ARC
  5
887
102
{ACAD_REACTORS
330
881
102
}
330
87F
100
AcDbEntity
  8
mousse
100
AcDbCircle
 10
1.0
 20
-10.00176003892193
 30
0.0
 40
2.0
100
AcDbArc
 50
311.4096221076177
 51
0.0
1001
AcDbBlockRepETag
1070
     1
1071
        0
1005
0
  0
LWPOLYLINE
  5
888
102
{ACAD_REACTORS
330
881
102
}
330
87F
100
AcDbEntity
  8
mousse
100
AcDbPolyline
 90
        4
 70
     0
 43
0.0
 10
3.0
 20
6.69615242270629
 10
0.0
 20
1.5
 10
0.0
 20
-1.5
 10
3.0
 20
-6.69615242270629
  0
LWPOLYLINE
  5
889
102
{ACAD_REACTORS
330
881
102
}
330
87F
100
AcDbEntity
  8
mousse
100
AcDbPolyline
 90
       10
 70
     0
 43
0.0
 10
-2.0
 20
11.49823996104533
 10
-1.999999999996362
 20
9.375644347018351
 42
-0.1316524975874029
 10
-2.669872981074149
 20
6.875644347018351
 10
-4.330127018918574
 20
3.99999999999909
 42
0.1316524975875543
 10
-4.999999999996362
 20
1.499999999996362
 10
-4.999999999996362
 20
-1.499999999996362
 42
0.1316524975876163
 10
-4.330127018918574
 20
-4.000000000000909
 10
-2.669872981077787
 20
-6.875644347026536
 42
-0.1316524975872599
 10
-2.0
 20
-9.375644347023808
 10
-2.0
 20
-11.50176003892193
  0
ENDBLK
  5
88A
330
87F
100
AcDbEntity
  8
0
100
AcDbBlockEnd
  0
BLOCK
  5
88C
330
88B
100
AcDbEntity
  8
0
100
AcDbBlockBegin
  2
mousse 40 samenstelling M500 basis 02
 70
     0
 10
0.0
 20
0.0
 30
0.0
  3
mousse 40 samenstelling M500 basis 02
  1

  0
HATCH
  5
88D
330
88B
100
AcDbEntity
  8
mousse
100
AcDbHatch
 10
0.0
 20
0.0
 30
0.0
210
0.0
220
0.0
230
1.0
  2
ANSI37
 70
     0
 71
     1
 91
        1
 92
        1
 93
       19
 72
     1
 10
4.000000000116415
 20
6.697912461642772
 11
1.000000000116415
 21
1.501760038936481
 72
     1
 10
1.000000000116415
 20
1.501760038936481
 11
1.000000000116415
 21
-1.498239961063518
 72
     1
 10
1.000000000116415
 20
-1.498239961063518
 11
4.000000000116415
 21
-6.694392383769809
 72
     1
 10
4.000000000116415
 20
-6.694392383769809
 11
4.000000000116415
 21
-9.999999999961801
 72
     2
 10
2.000000000116415
 20
-9.999999999961801
 40
2.0
 50
360.0
 51
408.5903778923822
 73
     0
 72
     1
 10
3.322875655663665
 20
-11.4999999999618
 11
-0.9999999998835846
 21
-11.4999999999618
 72
     1
 10
-0.9999999998835846
 20
-11.4999999999618
 11
-0.9999999998835846
 21
-9.928203230289
 72
     1
 10
-0.9999999998835846
 20
-9.928203230289
 11
1.517638090241234
 21
-9.253604137209549
 72
     2
 10
1.000000000056352
 20
-7.321752484635013
 40
1.999999999991305
 50
284.9999999994689
 51
445.0000000000557
 73
     1
 72
     1
 10
1.174311485548969
 20
-5.329363088460013
 11
0.0000000000582077
 21
-5.226624146032918
 72
     1
 10
0.0000000000582077
 20
-5.226624146031099
 11
0.0
 21
-0.000000000003638
 72
     1
 10
0.0
 20
0.0
 11
0.0000000000582077
 21
5.226624146027461
 72
     1
 10
0.0000000000582077
 20
5.22662414602928
 11
1.174311485548969
 21
5.329363088456375
 72
     2
 10
1.000000000056352
 20
7.321752484631375
 40
1.999999999991305
 50
274.9999999999442
 51
435.0000000005311
 73
     1
 72
     1
 10
1.517638090241234
 20
9.253604137205911
 11
-0.9999999998835846
 21
9.928203230285362
 72
     1
 10
-0.9999999998835846
 20
9.928203230285362
 11
-0.9999999998835846
 21
11.49999999995816
 72
     1
 10
-0.9999999998835846
 20
11.49999999995816
 11
3.322875655663665
 21
11.49999999995816
 72
     2
 10
2.000000000116415
 20
9.999999999958163
 40
2.0
 50
311.4096221076177
 51
360.0
 73
     0
 72
     1
 10
4.000000000116415
 20
9.999999999958163
 11
4.000000000116415
 21
6.697912461642772
 97
       13
330
89A
330
891
330
890
330
893
330
892
330
88E
330
88F
330
899
330
894
330
896
330
897
330
895
330
898
 75
     0
 76
     1
 52
0.0
 41
10.0
 77
     0
 78
     2
 53
45.0
 43
-0.9999999998835846
 44
-11.5
 45
-0.8838834764831842
 46
0.8838834764831844
 79
     0
 53
135.0
 43
-0.9999999998835846
 44
-11.5
 45
-0.8838834764831844
 46
-0.8838834764831842
 79
     0
 98
        1
 10
19705.30346808693
 20
6882.38904276221
1001
ACAD
1010
0.0
1020
0.0
1030
0.0
  0
LWPOLYLINE
  5
88E
102
{ACAD_REACTORS
330
88D
102
}
330
88B
100
AcDbEntity
  8
mousse
100
AcDbPolyline
 90
        4
 70
     0
 43
0.0
 10
-0.9999999998835846
 20
-9.928203230289
 10
1.517638090241234
 20
-9.253604137209549
 42
0.8390996311816444
 10
1.174311485548969
 20
-5.329363088460013
 10
0.0000000000582077
 20
-5.226624146032918
1001
AcDbBlockRepETag
1070
     1
1071
        0
1005
0
  0
LINE
  5
88F
102
{ACAD_REACTORS
330
88D
102
}
330
88B
100
AcDbEntity
  8
mousse
100
AcDbLine
 10
0.0
 20
-0.000000000003638
 30
0.0
 11
0.0000000000582077
 21
-5.226624146031099
 31
0.0
  0
ARC
  5
890
102
{ACAD_REACTORS
330
88D
102
}
330
88B
100
AcDbEntity
  8
mousse
100
AcDbCircle
 10
2.000000000116415
 20
-9.999999999961801
 30
0.0
 40
2.0
100
AcDbArc
 50
311.4096221076177
 51
0.0
1001
AcDbBlockRepETag
1070
     1
1071
        0
1005
0
  0
LINE
  5
891
102
{ACAD_REACTORS
330
88D
102
}
330
88B
100
AcDbEntity
  8
mousse
100
AcDbLine
 10
4.000000000116415
 20
-6.694392383769809
 30
0.0
 11
4.000000000116415
 21
-9.999999999961801
 31
0.0
  0
LINE
  5
892
102
{ACAD_REACTORS
330
88D
102
}
330
88B
100
AcDbEntity
  8
mousse
100
AcDbLine
 10
-0.9999999998835846
 20
-9.928203230289
 30
0.0
 11
-0.9999999998835846
 21
-11.4999999999618
 31
0.0
  0
LINE
  5
893
102
{ACAD_REACTORS
330
88D
102
}
330
88B
100
AcDbEntity
  8
mousse
100
AcDbLine
 10
-0.9999999998835846
 20
-11.4999999999618
 30
0.0
 11
3.322875655663665
 21
-11.4999999999618
 31
0.0
  0
LWPOLYLINE
  5
894
102
{ACAD_REACTORS
330
88D
102
}
330
88B
100
AcDbEntity
  8
mousse
100
AcDbPolyline
 90
        4
 70
     0
 43
0.0
 10
-0.9999999998835846
 20
9.928203230285362
 10
1.517638090241234
 20
9.253604137205911
 42
-0.8390996311816444
 10
1.174311485548969
 20
5.329363088456375
 10
0.0000000000582077
 20
5.22662414602928
1001
AcDbBlockRepETag
1070
     1
1071
        0
1005
0
  0
ARC
  5
895
102
{ACAD_REACTORS
330
88D
102
}
330
88B
100
AcDbEntity
  8
mousse
100
AcDbCircle
 10
2.000000000116415
 20
9.999999999958163
 30
0.0
 40
2.0
100
AcDbArc
 50
0.0
 51
48.59037789238229
1001
AcDbBlockRepETag
1070
     1
1071
        0
1005
0
  0
LINE
  5
896
102
{ACAD_REACTORS
330
88D
102
}
330
88B
100
AcDbEntity
  8
mousse
100
AcDbLine
 10
-0.9999999998835846
 20
9.928203230285362
 30
0.0
 11
-0.9999999998835846
 21
11.49999999995816
 31
0.0
  0
LINE
  5
897
102
{ACAD_REACTORS
330
88D
102
}
330
88B
100
AcDbEntity
  8
mousse
100
AcDbLine
 10
-0.9999999998835846
 20
11.49999999995816
 30
0.0
 11
3.322875655663665
 21
11.49999999995816
 31
0.0
  0
LINE
  5
898
102
{ACAD_REACTORS
330
88D
102
}
330
88B
100
AcDbEntity
  8
mousse
100
AcDbLine
 10
4.000000000116415
 20
6.697912461642772
 30
0.0
 11
4.000000000116415
 21
9.999999999958163
 31
0.0
  0
LINE
  5
899
102
{ACAD_REACTORS
330
88D
102
}
330
88B
100
AcDbEntity
  8
mousse
100
AcDbLine
 10
0.0
 20
0.0
 30
0.0
 11
0.0000000000582077
 21
5.226624146027461
 31
0.0
  0
LWPOLYLINE
  5
89A
102
{ACAD_REACTORS
330
88D
102
}
330
88B
100
AcDbEntity
  8
mousse
100
AcDbPolyline
 90
        4
 70
     0
 43
0.0
 10
4.000000000116415
 20
6.697912461642772
 10
1.000000000116415
 20
1.501760038936481
 10
1.000000000116415
 20
-1.498239961063518
 10
4.000000000116415
 20
-6.694392383769809
  0
ENDBLK
  5
89B
330
88B
100
AcDbEntity
  8
0
100
AcDbBlockEnd
  0
BLOCK
  5
9EF
330
9EE
100
AcDbEntity
  8
0
100
AcDbBlockBegin
  2
*D8
 70
     1
 10
0.0
 20
0.0
 30
0.0
  3
*D8
  1

  0
LINE
  5
9FA
330
9EE
100
AcDbEntity
  8
maten
 62
     0
440
 16777216
370
    -2
100
AcDbLine
 10
302456.4567814548
 20
-15003.91252944604
 30
0.0
 11
302400.1837367185
 21
-15003.91252944604
 31
0.0
  0
LINE
  5
9FB
330
9EE
100
AcDbEntity
  8
maten
 62
     0
440
 16777216
370
    -2
100
AcDbLine
 10
302439.7202207567
 20
-15063.91252944604
 30
0.0
 11
302400.1837367185
 21
-15063.91252944604
 31
0.0
  0
LINE
  5
9FC
330
9EE
100
AcDbEntity
  8
maten
 62
     0
440
 16777216
370
    -2
100
AcDbLine
 10
302410.1837367186
 20
-15023.91252944604
 30
0.0
 11
302410.1837367186
 21
-15043.91252944604
 31
0.0
  0
SOLID
  5
9FD
330
9EE
100
AcDbEntity
  8
maten
 62
     0
440
 16777216
100
AcDbTrace
 10
302406.8504033853
 20
-15023.91252944604
 30
0.0
 11
302413.5170700519
 21
-15023.91252944604
 31
0.0
 12
302410.1837367186
 22
-15003.91252944604
 32
0.0
 13
302410.1837367186
 23
-15003.91252944604
 33
0.0
  0
SOLID
  5
9FE
330
9EE
100
AcDbEntity
  8
maten
 62
     0
440
 16777216
100
AcDbTrace
 10
302406.8504033853
 20
-15043.91252944604
 30
0.0
 11
302413.5170700519
 21
-15043.91252944604
 31
0.0
 12
302410.1837367186
 22
-15063.91252944604
 32
0.0
 13
302410.1837367186
 23
-15063.91252944604
 33
0.0
  0
MTEXT
  5
9FF
330
9EE
100
AcDbEntity
  8
maten
 62
     0
440
 16777216
100
AcDbMText
 10
302395.1837367186
 20
-15033.91252944599
 30
0.0
 40
20.0
 41
0.0
 46
0.0
 71
     5
 72
     1
  1
60
 11
0.0000000000000001
 21
1.0
 31
0.0
 73
     1
 44
1.0
  0
POINT
  5
A00
330
9EE
100
AcDbEntity
  8
Defpoints
 62
     0
440
 16777216
100
AcDbPoint
 10
302480.4567814548
 20
-15003.91252944604
 30
0.0
  0
POINT
  5
A01
330
9EE
100
AcDbEntity
  8
Defpoints
 62
     0
440
 16777216
100
AcDbPoint
 10
302463.7202207567
 20
-15063.91252944604
 30
0.0
  0
POINT
  5
A02
330
9EE
100
AcDbEntity
  8
Defpoints
 62
     0
440
 16777216
100
AcDbPoint
 10
302410.1837367186
 20
-15063.91252944604
 30
0.0
  0
ENDBLK
  5
9F0
330
9EE
100
AcDbEntity
  8
0
100
AcDbBlockEnd
  0
ENDSEC
  0
SECTION
  2
ENTITIES
  0
LINE
  5
73
330
2
100
AcDbEntity
  8
template
100
AcDbLine
 10
301768.1887815012
 20
-15359.77976686206
 30
0.0
 11
303100.0124545632
 21
-15359.77976686206
 31
0.0
  0
LINE
  5
77
330
2
100
AcDbEntity
  8
template
100
AcDbLine
 10
301784.7950610928
 20
-15343.1734872705
 30
0.0
 11
303083.4061251528
 21
-15343.1734872705
 31
0.0
  0
LINE
  5
78
330
2
100
AcDbEntity
  8
template
100
AcDbLine
 10
301741.6187341547
 20
-15376.38604645362
 30
0.0
 11
303116.6187341547
 21
-15376.38604645362
 31
0.0
  0
LINE
  5
79
330
2
100
AcDbEntity
  8
template
100
AcDbLine
 10
303083.4061251528
 20
-14423.18554807924
 30
0.0
 11
303083.4061251528
 21
-15343.1734872705
 31
0.0
  0
LINE
  5
7A
330
2
100
AcDbEntity
  8
template
100
AcDbLine
 10
303100.0124545632
 20
-15359.77976686206
 30
0.0
 11
303100.0124545632
 21
-14406.57926848768
 31
0.0
  0
LINE
  5
7B
330
2
100
AcDbEntity
  8
template
100
AcDbLine
 10
303116.6187341547
 20
-15376.38604645362
 30
0.0
 11
303116.6187341547
 21
-14389.97298889612
 31
0.0
  0
LINE
  5
7C
330
2
100
AcDbEntity
  8
template
100
AcDbLine
 10
302909.0401894414
 20
-15343.1734872705
 30
0.0
 11
302909.0401894414
 21
-15359.77976686206
 31
0.0
  0
LINE
  5
7D
330
2
100
AcDbEntity
  8
template
100
AcDbLine
 10
303083.4061251528
 20
-15322.71400778836
 30
0.0
 11
303100.0124047443
 21
-15322.71400778836
 31
0.0
  0
LINE
  5
7E
330
2
100
AcDbEntity
  8
template
100
AcDbLine
 10
301768.1887815012
 20
-14406.57926848768
 30
0.0
 11
301768.1887815012
 21
-15359.77976686206
 31
0.0
  0
LINE
  5
7F
330
2
100
AcDbEntity
  8
template
100
AcDbLine
 10
301784.7950610928
 20
-14423.18554807924
 30
0.0
 11
301784.7950610928
 21
-15343.1734872705
 31
0.0
  0
LINE
  5
80
330
2
100
AcDbEntity
  8
template
100
AcDbLine
 10
301741.6187341547
 20
-14389.97298889612
 30
0.0
 11
301741.6187341547
 21
-15376.38604645362
 31
0.0
  0
LINE
  5
81
330
2
100
AcDbEntity
  8
template
100
AcDbLine
 10
301959.1609968041
 20
-15343.1734872705
 30
0.0
 11
301959.1609968041
 21
-15359.77976686206
 31
0.0
  0
LINE
  5
82
330
2
100
AcDbEntity
  8
template
100
AcDbLine
 10
302196.6307949635
 20
-15343.1734872705
 30
0.0
 11
302196.6307949635
 21
-15359.77976686206
 31
0.0
  0
LINE
  5
83
330
2
100
AcDbEntity
  8
template
100
AcDbLine
 10
302434.1005931227
 20
-15343.1734872705
 30
0.0
 11
302434.1005931227
 21
-15359.77976686206
 31
0.0
  0
LINE
  5
84
330
2
100
AcDbEntity
  8
template
100
AcDbLine
 10
302671.5703912821
 20
-15343.1734872705
 30
0.0
 11
302671.5703912821
 21
-15359.77976686206
 31
0.0
  0
LINE
  5
85
330
2
100
AcDbEntity
  8
template
100
AcDbLine
 10
303100.0124545632
 20
-14406.57926848768
 30
0.0
 11
301768.1887815012
 21
-14406.57926848768
 31
0.0
  0
LINE
  5
86
330
2
100
AcDbEntity
  8
template
100
AcDbLine
 10
303083.4061251528
 20
-14423.18554807924
 30
0.0
 11
301784.7950610928
 21
-14423.18554807924
 31
0.0
  0
LINE
  5
87
330
2
100
AcDbEntity
  8
template
100
AcDbLine
 10
303116.6187341547
 20
-14389.97298889612
 30
0.0
 11
301741.6187341547
 21
-14389.97298889612
 31
0.0
  0
LINE
  5
88
330
2
100
AcDbEntity
  8
template
100
AcDbLine
 10
301768.1887815012
 20
-15322.71400778836
 30
0.0
 11
301784.7950610928
 21
-15322.71400778836
 31
0.0
  0
LINE
  5
89
330
2
100
AcDbEntity
  8
template
100
AcDbLine
 10
301768.1887815012
 20
-15102.94676273162
 30
0.0
 11
301784.7950610928
 21
-15102.94676273162
 31
0.0
  0
LINE
  5
8A
330
2
100
AcDbEntity
  8
template
100
AcDbLine
 10
301768.1887815012
 20
-14883.17951767487
 30
0.0
 11
301784.7950610928
 21
-14883.17951767487
 31
0.0
  0
LINE
  5
8B
330
2
100
AcDbEntity
  8
template
100
AcDbLine
 10
301768.1887815012
 20
-14663.41181760607
 30
0.0
 11
301784.7950610928
 21
-14663.41181760607
 31
0.0
  0
LINE
  5
8C
330
2
100
AcDbEntity
  8
template
100
AcDbLine
 10
301768.1887815012
 20
-14443.67741312784
 30
0.0
 11
301784.7950610928
 21
-14443.67741312784
 31
0.0
  0
LINE
  5
8D
330
2
100
AcDbEntity
  8
template
100
AcDbLine
 10
302909.0401894414
 20
-14406.57926848768
 30
0.0
 11
302909.0401894414
 21
-14423.18554807924
 31
0.0
  0
LINE
  5
8E
330
2
100
AcDbEntity
  8
template
100
AcDbLine
 10
303083.4061251528
 20
-14443.67741312784
 30
0.0
 11
303100.0124545632
 21
-14443.67741312784
 31
0.0
  0
LINE
  5
8F
330
2
100
AcDbEntity
  8
template
100
AcDbLine
 10
301959.1609968041
 20
-14406.57926848768
 30
0.0
 11
301959.1609968041
 21
-14423.18554807924
 31
0.0
  0
LINE
  5
90
330
2
100
AcDbEntity
  8
template
100
AcDbLine
 10
302196.6307949635
 20
-14406.57926848768
 30
0.0
 11
302196.6307949635
 21
-14423.18554807924
 31
0.0
  0
LINE
  5
91
330
2
100
AcDbEntity
  8
template
100
AcDbLine
 10
302434.1005931227
 20
-14406.57926848768
 30
0.0
 11
302434.1005931227
 21
-14423.18554807924
 31
0.0
  0
LINE
  5
92
330
2
100
AcDbEntity
  8
template
100
AcDbLine
 10
302671.5703912821
 20
-14406.57926848768
 30
0.0
 11
302671.5703912821
 21
-14423.18554807924
 31
0.0
  0
LINE
  5
93
330
2
100
AcDbEntity
  8
template
100
AcDbLine
 10
303083.4061251528
 20
-15105.70366420177
 30
0.0
 11
303100.0124545632
 21
-15105.70366420177
 31
0.0
  0
LINE
  5
94
330
2
100
AcDbEntity
  8
template
100
AcDbLine
 10
303083.4061251528
 20
-14883.17951767487
 30
0.0
 11
303100.0124545632
 21
-14883.17951767487
 31
0.0
  0
LINE
  5
95
330
2
100
AcDbEntity
  8
template
100
AcDbLine
 10
303083.4061251528
 20
-14663.41181760607
 30
0.0
 11
303100.0124545632
 21
-14663.41181760607
 31
0.0
  0
MTEXT
  5
96
330
2
100
AcDbEntity
  8
template
100
AcDbMText
 10
302439.3857558246
 20
-15274.54234295768
 30
0.0
 40
14.53049964261496
 41
218.9099946157972
 46
0.0
 71
     1
 72
     5
  1
Update: 06.08.2019
 73
     1
 44
1.0
  0
OLE2FRAME
  5
97
330
2
100
AcDbEntity
  8
maten
100
AcDbOle2Frame
 70
     2
  1
OLE
1001
ACAD
1000
OLEBEGIN
1070
    70
1070
     1
1070
    71
1070
     1
1070
    40
1040
0.0
1070
    41
1040
382.739100990002
1070
    42
1040
86.10543087883161
1070
    72
1070
     0
1070
     3
1000

1070
    90
1071
        0
1070
    43
1040
0.0
1070
     4
1000

1070
    91
1071
        0
1070
    44
1040
0.0
1000
OLEEND
  0
LWPOLYLINE
  5
9B
330
2
100
AcDbEntity
  8
template
100
AcDbPolyline
 90
        4
 70
     1
 43
0.0
 10
302671.5703912821
 20
-15143.67070874278
 10
303083.4061251528
 20
-15143.67070874278
 10
303083.4061251528
 20
-15343.1734872705
 10
302671.5703912821
 20
-15343.1734872705
  0
LINE
  5
9C
330
2
100
AcDbEntity
  8
template
100
AcDbLine
 10
302671.5703912821
 20
-15254.11607745923
 30
0.0
 11
303083.4061251528
 21
-15254.11607745923
 31
0.0
  0
MTEXT
  5
9D
330
2
100
AcDbEntity
  8
template
100
AcDbMText
 10
302739.8550900356
 20
-15266.19604874096
 30
0.0
 40
14.53049964261496
 41
400.2922901546072
 46
0.0
 71
     1
 72
     5
  3
JORIS IDE nv    www.joriside.be\PHille{\H0.6874x; }174;{\H0.6874x; }8750{\H0.5714x; }Zwevezele;{\H0.5714x; }Belgium\P{\H0.6874x;Tel: 0032\H0.5006x; \H1.998x;(0)\H0.5006x; \H1.998x;51\H0.5006x; \H1.998x;612\H0.5006x; \H1.998x;871  Fax: 0032\H0.5006x; 
  1
\H1.998x;(0)\H0.5006x; \H1.998x;51\H0.5006x; \H1.998x;612\H0.5006x; \H1.998x;700}
 73
     1
 44
1.0
  0
LWPOLYLINE
  5
9E
330
2
100
AcDbEntity
  8
template
100
AcDbPolyline
 90
        4
 70
     1
 43
0.0
 10
302671.5703912821
 20
-15143.67070874278
 10
302434.1005931228
 20
-15143.67070874278
 10
302434.1005931228
 20
-15343.1734872705
 10
302671.5703912821
 20
-15343.1734872705
  0
LINE
  5
9F
330
2
100
AcDbEntity
  8
template
100
AcDbLine
 10
302620.1476843431
 20
-15267.06607714072
 30
0.0
 11
302434.1005931228
 21
-15267.06607714072
 31
0.0
  0
CIRCLE
  5
A0
330
2
100
AcDbEntity
  8
template
100
AcDbCircle
 10
302634.3476106993
 20
-15175.27365471404
 30
0.0
 40
15.67679961442112
  0
CIRCLE
  5
A1
330
2
100
AcDbEntity
  8
template
100
AcDbCircle
 10
302634.3476106993
 20
-15175.27365471404
 30
0.0
 40
6.854399831412544
  0
LINE
  5
A2
330
2
100
AcDbEntity
  8
template
  6
CENTERX2
100
AcDbLine
 10
302569.1540123028
 20
-15175.27365471404
 30
0.0
 11
302654.4500102049
 21
-15175.27365471404
 31
0.0
  0
LINE
  5
A4
330
2
100
AcDbEntity
  8
template
100
AcDbLine
 10
302671.5703912821
 20
-15237.06607787858
 30
0.0
 11
302434.1005931228
 21
-15237.06607787858
 31
0.0
  0
LINE
  5
A5
330
2
100
AcDbEntity
  8
template
100
AcDbLine
 10
302671.5703912821
 20
-15207.06607861645
 30
0.0
 11
302434.1005931228
 21
-15207.06607861645
 31
0.0
  0
MTEXT
  5
A6
330
2
100
AcDbEntity
  8
template
100
AcDbMText
 10
302439.7057558168
 20
-15216.3660503894
 30
0.0
 40
14.53049964261496
 41
218.9099946157972
 46
0.0
 71
     1
 72
     5
  1
Design: JD
 73
     1
 44
1.0
  0
MTEXT
  5
A7
330
2
100
AcDbEntity
  8
template
100
AcDbMText
 10
302439.7057558168
 20
-15246.36604965154
 30
0.0
 40
14.53049964261496
 41
218.9099946157972
 46
0.0
 71
     1
 72
     5
  1
Approval: JF
 73
     1
 44
1.0
  0
MTEXT
  5
A8
330
2
100
AcDbEntity
  8
template
100
AcDbMText
 10
302457.2587352866
 20
-15154.80260827701
 30
0.0
 40
14.53049964261496
 41
302.6725925556134
 46
0.0
 71
     1
 72
     5
  1
Scale\P1 : 5
 73
     1
 44
1.0
  0
LINE
  5
A9
330
2
100
AcDbEntity
  8
template
100
AcDbLine
 10
302574.0500121824
 20
-15168.41925488263
 30
0.0
 11
302597.0900116157
 21
-15159.59685509962
 31
0.0
  0
LINE
  5
AA
330
2
100
AcDbEntity
  8
template
100
AcDbLine
 10
302574.0500121824
 20
-15182.12805454545
 30
0.0
 11
302597.0900116157
 21
-15190.95045432846
 31
0.0
  0
LINE
  5
AB
330
2
100
AcDbEntity
  8
template
100
AcDbLine
 10
302552.8354922025
 20
-15207.06607861645
 30
0.0
 11
302552.8354922025
 21
-15143.67070874278
 31
0.0
  0
LINE
  5
AC
330
2
100
AcDbEntity
  8
template
100
AcDbLine
 10
302574.0500121824
 20
-15168.41925488263
 30
0.0
 11
302574.0500121824
 21
-15182.12805454545
 31
0.0
  0
LINE
  5
AD
330
2
100
AcDbEntity
  8
template
  6
CENTERX2
100
AcDbLine
 10
302634.3476106993
 20
-15193.89765425597
 30
0.0
 11
302634.3476106993
 21
-15156.65925517187
 31
0.0
  0
LINE
  5
AE
330
2
100
AcDbEntity
  8
template
100
AcDbLine
 10
302597.0900116157
 20
-15190.95045432846
 30
0.0
 11
302597.0900116157
 21
-15175.27365471404
 31
0.0
  0
LINE
  5
AF
330
2
100
AcDbEntity
  8
template
100
AcDbLine
 10
302597.0900116157
 20
-15159.59685509962
 30
0.0
 11
302597.0900116157
 21
-15175.27365471404
 31
0.0
  0
LINE
  5
B0
330
2
100
AcDbEntity
  8
template
100
AcDbLine
 10
302671.5703912821
 20
-15297.06607640286
 30
0.0
 11
302434.1005931228
 21
-15297.06607640286
 31
0.0
  0
LINE
  5
B1
330
2
100
AcDbEntity
  8
template
100
AcDbLine
 10
302552.8354922025
 20
-15207.06607861645
 30
0.0
 11
302552.8354922025
 21
-15237.06607787858
 31
0.0
  0
LINE
  5
B2
330
2
100
AcDbEntity
  8
template
100
AcDbLine
 10
302620.1476843431
 20
-15297.06607640286
 30
0.0
 11
302620.1476843431
 21
-15237.06607787858
 31
0.0
  0
MTEXT
  5
B3
330
2
100
AcDbEntity
  8
template
100
AcDbMText
 10
302629.25961545
 20
-15246.36604965154
 30
0.0
 40
14.53049964261496
 41
218.9099946157972
 46
0.0
 71
     1
 72
     5
  1
Rev.
 73
     1
 44
1.0
  0
MTEXT
  5
B4
330
2
100
AcDbEntity
  8
template
100
AcDbMText
 10
302638.4208781261
 20
-15271.90730032024
 30
0.0
 40
14.53049964261496
 41
218.9099946157972
 46
0.0
 71
     1
 72
     5
  1
D
 73
     1
 44
1.0
  0
MTEXT
  5
B5
330
2
100
AcDbEntity
  8
template
100
AcDbMText
 10
302556.9291210675
 20
-15216.3660503894
 30
0.0
 40
14.53049964261496
 41
218.9099946157972
 46
0.0
 71
     1
 72
     5
  1
Nr. JI242
 73
     1
 44
1.0
  0
MTEXT
  5
B7
330
2
100
AcDbEntity
  8
template
100
AcDbMText
 10
302486.3751731765
 20
-15303.58881581368
 30
0.0
 40
14.53049964261496
 41
298.265289347354
 46
0.0
 71
     1
 72
     5
  1
JI WALL 60 PIR
 73
     1
 44
1.0
  0
SOLID
  5
C7
330
2
100
AcDbEntity
  8
0
100
AcDbTrace
 10
-302241.7821152306
 20
-14984.53992980312
 30
0.0
 11
-302258.1241926439
 21
-15003.91252944604
 31
0.0
 12
-302248.948476056
 22
-14980.28696413622
 32
0.0
 13
-302248.948476056
 23
-14980.28696413622
 33
0.0
210
0.0
220
0.0
230
-1.0
1001
ACAD
1000
DSTYLE
1002
{
1070
   147
1040
0.625
1070
    77
1070
     0
1070
    40
1040
10.0
1070
    73
1070
     0
1070
    74
1070
     0
1070
   140
1040
3.0
1002
}
  0
LWPOLYLINE
  5
C8
330
2
100
AcDbEntity
  8
0
100
AcDbPolyline
 90
        2
 70
     0
 43
0.0
 10
-302258.1241926439
 20
-15003.91252944605
 10
-302185.3545869844
 20
-14881.29379886453
210
0.0
220
0.0
230
-1.0
1001
ACAD
1000
DSTYLE
1002
{
1070
   147
1040
0.625
1070
    77
1070
     0
1070
    40
1040
10.0
1070
    73
1070
     0
1070
    74
1070
     0
1070
   140
1040
3.0
1002
}
  0
SOLID
  5
F4
330
2
100
AcDbEntity
  8
0
100
AcDbTrace
 10
-302230.2955174577
 20
-15083.28512908891
 30
0.0
 11
-302246.6375948711
 21
-15063.91252944599
 31
0.0
 12
-302237.4618782832
 22
-15087.53809475581
 32
0.0
 13
-302237.4618782832
 23
-15087.53809475581
 33
0.0
210
0.0
220
0.0
230
-1.0
1001
ACAD
1000
DSTYLE
1002
{
1070
   147
1040
0.625
1070
    77
1070
     0
1070
    40
1040
10.0
1070
    73
1070
     0
1070
    74
1070
     0
1070
   140
1040
3.0
1002
}
  0
LWPOLYLINE
  5
F5
330
2
100
AcDbEntity
  8
0
100
AcDbPolyline
 90
        2
 70
     0
 43
0.0
 10
-302246.637594871
 20
-15063.91252944607
 10
-302184.6956963572
 20
-15168.28628407529
210
0.0
220
0.0
230
-1.0
1001
ACAD
1000
DSTYLE
1002
{
1070
   147
1040
0.625
1070
    77
1070
     0
1070
    40
1040
10.0
1070
    73
1070
     0
1070
    74
1070
     0
1070
   140
1040
3.0
1002
}
  0
DIMENSION
  5
121
330
2
100
AcDbEntity
  8
maten
100
AcDbDimension
280
     0
  2
*D0
 10
303000.7026101639
 20
-14932.06835772887
 30
0.0
 11
302400.7026101639
 21
-14932.06835772887
 31
0.0
 70
   128
 71
     5
 42
1150.0
 73
     0
 74
     0
 75
     0
  3
ISO-25
100
AcDbAlignedDimension
 13
301850.702610164
 23
-15007.91252944603
 33
0.0
 14
303000.7026101639
 24
-15007.91252944603
 34
0.0
100
AcDbRotatedDimension
1001
ACAD
1000
DSTYLE
1002
{
1070
    40
1040
10.0
1070
    73
1070
     0
1070
    74
1070
     0
1002
}
  0
INSERT
  5
260
330
2
100
AcDbEntity
  8
mousse
100
AcDbBlockReference
  2
mousse 60 samenstelling M500 basis 02
 10
302822.4583938396
 20
-14687.21071200622
 30
0.0
 41
2.5
 42
2.5
 43
2.5
  0
CIRCLE
  5
30D
102
{ACAD_REACTORS
330
522
330
B42
102
}
330
2
100
AcDbEntity
  8
maten
100
AcDbCircle
 10
302837.6709934304
 20
-14684.49870964573
 30
0.0
 40
200.0
  0
MTEXT
  5
30E
102
{ACAD_XDICTIONARY
360
801
102
}
330
2
100
AcDbEntity
  8
maten
100
AcDbMText
 10
302526.2689640098
 20
-14470.22374864275
 30
0.0
 40
14.5305
 41
332.247594284676
 46
0.0
 71
     1
 72
     5
  1
\pi142.875;{\LDetail\P\pi146.93321;}1/2.5
 73
     1
 44
1.0
  0
INSERT
  5
311
102
{ACAD_REACTORS
330
522
102
}
330
2
100
AcDbEntity
  8
0
100
AcDbBlockReference
  2
vijs 60
 10
302881.3294771733
 20
-14612.21071200616
 30
0.0
  0
LINE
  5
344
102
{ACAD_REACTORS
330
B42
102
}
330
2
100
AcDbEntity
  8
0
100
AcDbLine
 10
302822.4583938404
 20
-14725.27727237128
 30
0.0
 11
302822.4583938387
 21
-14649.14415164116
 31
0.0
  0
LINE
  5
346
102
{ACAD_REACTORS
330
B42
102
}
330
2
100
AcDbEntity
  8
0
100
AcDbLine
 10
302812.9417388279
 20
-14724.44467294301
 30
0.0
 11
302812.8110052139
 21
-14725.93896499015
 31
0.0
  0
LWPOLYLINE
  5
348
102
{ACAD_REACTORS
330
B42
102
}
330
2
100
AcDbEntity
  8
0
100
AcDbPolyline
 90
       11
 70
     0
 43
0.0
 10
302812.8110052139
 20
-14648.48245902215
 10
302825.26343894
 20
-14647.39301223781
 42
0.839099631179819
 10
302825.8642604982
 20
-14640.52559040251
 10
302809.8880816415
 20
-14636.24478617976
 42
0.065543462826473
 10
302809.6292625964
 20
-14636.21071200605
 10
302775.5649955581
 20
-14636.21071200605
 42
-0.6341370759950723
 10
302771.5152021749
 20
-14627.61980291517
 42
0.6341370759957849
 10
302764.9583938404
 20
-14613.71071200612
 10
302660.3236843513
 20
-14613.71071200612
 42
0.0938849627440341
 10
302660.1408076033
 20
-14613.74535612612
 10
302649.0074187361
 20
-14618.12058385433
1001
AcDbBlockRepETag
1070
     1
1071
        6
1005
0
  0
LWPOLYLINE
  5
349
102
{ACAD_REACTORS
330
B42
102
}
330
2
100
AcDbEntity
  8
0
100
AcDbPolyline
 90
       11
 70
     0
 43
0.0
 10
302812.9417388279
 20
-14649.97675106929
 10
302825.3941725541
 20
-14648.88730428495
 42
0.8390996311816444
 10
302826.2524890659
 20
-14639.07670166307
 10
302810.2763102092
 20
-14634.79589744033
 42
0.0655434628151784
 10
302809.6292625964
 20
-14634.71071200605
 10
302775.5649955581
 20
-14634.71071200605
 42
-0.6341370759934755
 10
302772.6722859987
 20
-14628.57434836972
 42
0.6341370759954755
 10
302764.9583938404
 20
-14612.21071200612
 10
302660.3236843513
 20
-14612.21071200612
 42
0.0938849627467446
 10
302659.5921773595
 20
-14612.34928848608
 10
302649.6776326374
 20
-14616.24553171429
1001
AcDbBlockRepETag
1070
     1
1071
        6
1005
0
  0
LWPOLYLINE
  5
34A
102
{ACAD_REACTORS
330
B42
102
}
330
2
100
AcDbEntity
  8
0
100
AcDbPolyline
 90
       11
 70
     0
 43
0.0
 10
302812.8110052139
 20
-14725.93896499015
 10
302825.26343894
 20
-14727.02841177449
 42
-0.839099631179819
 10
302825.8642604982
 20
-14733.89583360979
 10
302809.8880816415
 20
-14738.17663783254
 42
-0.065543462826473
 10
302809.6292625964
 20
-14738.21071200625
 10
302775.5649955581
 20
-14738.21071200625
 42
0.6341370759950723
 10
302771.5152021749
 20
-14746.80162109713
 42
-0.6341370759957849
 10
302764.9583938404
 20
-14760.71071200618
 10
302660.3236843513
 20
-14760.71071200618
 42
-0.0938849627440341
 10
302660.1408076033
 20
-14760.67606788618
 10
302651.3630193112
 20
-14757.22655011706
1001
AcDbBlockRepETag
1070
     1
1071
        6
1005
0
  0
LWPOLYLINE
  5
34B
102
{ACAD_REACTORS
330
B42
102
}
330
2
100
AcDbEntity
  8
0
100
AcDbPolyline
 90
       11
 70
     0
 43
0.0
 10
302812.9417388279
 20
-14724.44467294301
 10
302825.3941725541
 20
-14725.53411972735
 42
-0.8390996311816444
 10
302826.2524890659
 20
-14735.34472234923
 10
302810.2763102092
 20
-14739.62552657197
 42
-0.0655434628151784
 10
302809.6292625964
 20
-14739.71071200625
 10
302775.5649955581
 20
-14739.71071200625
 42
0.6341370759934755
 10
302772.6722859987
 20
-14745.84707564259
 42
-0.6341370759954755
 10
302764.9583938404
 20
-14762.21071200618
 10
302660.3236843513
 20
-14762.21071200618
 42
-0.0938849627467446
 10
302659.5921773595
 20
-14762.07213552622
 10
302652.1195247282
 20
-14759.13551331842
1001
AcDbBlockRepETag
1070
     1
1071
        6
1005
0
  0
LINE
  5
34E
102
{ACAD_REACTORS
330
B42
102
}
330
2
100
AcDbEntity
  8
0
100
AcDbLine
 10
302812.9417388279
 20
-14649.97675106929
 30
0.0
 11
302812.8110052139
 21
-14648.48245902216
 31
0.0
  0
LINE
  5
351
330
2
100
AcDbEntity
  8
0
100
AcDbLine
 10
302849.5497454351
 20
-14724.43813783888
 30
0.0
 11
302849.605782467
 21
-14725.93896499016
 31
0.0
  0
LINE
  5
353
330
2
100
AcDbEntity
  8
0
100
AcDbLine
 10
302849.5497454351
 20
-14649.98328617342
 30
0.0
 11
302849.605782467
 21
-14648.48245902214
 31
0.0
  0
LWPOLYLINE
  5
354
102
{ACAD_REACTORS
330
522
102
}
330
2
100
AcDbEntity
  8
0
100
AcDbPolyline
 90
        8
 70
     0
 43
0.0
 10
303026.0502018052
 20
-14617.31780572157
 10
303022.9024597656
 20
-14618.5548134662
 42
-0.0938849627468092
 10
303022.0795143999
 20
-14618.71071200616
 10
302910.3372732812
 20
-14618.71071200616
 42
-0.0938849627467605
 10
302909.5143279154
 20
-14618.55481346621
 10
302897.2759800775
 20
-14613.74535612615
 42
0.0938849627346202
 10
302897.0931033297
 20
-14613.71071200616
 10
302885.169062634
 20
-14613.71071200617
1001
AcDbBlockRepETag
1070
     1
1071
        6
1005
0
  0
LWPOLYLINE
  5
355
330
2
100
AcDbEntity
  8
0
100
AcDbPolyline
 90
       14
 70
     0
 43
0.0
 10
303025.5408468637
 20
-14615.90630357242
 10
303022.3538295218
 20
-14617.15874582618
 42
-0.0938849627448049
 10
303022.0795143999
 20
-14617.21071200616
 10
302910.3372732812
 20
-14617.21071200616
 42
-0.0938849627448045
 10
302910.0629581593
 20
-14617.15874582618
 10
302897.8246103214
 20
-14612.34928848612
 42
0.0938849627448041
 10
302897.0931033297
 20
-14612.21071200616
 10
302792.4583938405
 20
-14612.21071200619
 42
0.9999999999999998
 10
302792.4583938405
 20
-14632.21071200619
 10
302827.4583938405
 20
-14632.21071200619
 42
-0.4142135623730951
 10
302832.4583938405
 20
-14637.21071200619
 10
302832.4583938405
 20
-14643.90633079449
 42
0.3888787318369586
 10
302837.0226151267
 20
-14648.88730428493
 10
302849.5497454351
 20
-14649.98328617342
1001
AcDbBlockRepETag
1070
     1
1071
        6
1005
0
  0
LWPOLYLINE
  5
356
102
{ACAD_REACTORS
330
522
102
}
330
2
100
AcDbEntity
  8
0
100
AcDbPolyline
 90
        8
 70
     0
 43
0.0
 10
303024.2942835722
 20
-14756.41357303738
 10
303022.9024597656
 20
-14755.8666105461
 42
0.0938849627468092
 10
303022.0795143999
 20
-14755.71071200614
 10
302910.3372732812
 20
-14755.71071200614
 42
0.0938849627467605
 10
302909.5143279154
 20
-14755.86661054609
 10
302897.2759800775
 20
-14760.67606788615
 42
-0.0938849627346202
 10
302897.0931033297
 20
-14760.71071200614
 10
302885.7945443415
 20
-14760.71071200613
1001
AcDbBlockRepETag
1070
     1
1071
        6
1005
0
  0
LWPOLYLINE
  5
357
330
2
100
AcDbEntity
  8
0
100
AcDbPolyline
 90
        8
 70
     0
 43
0.0
 10
303023.7496748279
 20
-14757.81122105662
 10
303022.3538295218
 20
-14757.26267818612
 42
0.0938849627448049
 10
303022.0795143999
 20
-14757.21071200614
 10
302910.3372732812
 20
-14757.21071200614
 42
0.0938849627448045
 10
302910.0629581593
 20
-14757.26267818612
 10
302897.8246103214
 20
-14762.07213552618
 42
-0.0938849627448041
 10
302897.0931033297
 20
-14762.21071200614
 10
302884.9295719203
 20
-14762.21071200614
1001
AcDbBlockRepETag
1070
     1
1071
        6
1005
0
  0
LINE
  5
358
330
2
100
AcDbEntity
  8
0
100
AcDbLine
 10
302832.4583938405
 20
-14643.90633079441
 30
0.0
 11
302832.4583938405
 21
-14645.46593085197
 31
0.0
  0
LINE
  5
359
330
2
100
AcDbEntity
  8
0
100
AcDbLine
 10
302832.4583938405
 20
-14728.9466929655
 30
0.0
 11
302832.4583938405
 21
-14730.51509321789
 31
0.0
  0
LWPOLYLINE
  5
35B
330
2
100
AcDbEntity
  8
0
100
AcDbPolyline
 90
        4
 70
     0
 43
0.0
 10
302832.4583938398
 20
-14645.4659308531
 10
302824.9583938405
 20
-14658.45631190874
 10
302824.9583938405
 20
-14715.95631190874
 10
302832.4583938398
 20
-14728.94669296437
  0
LWPOLYLINE
  5
494
330
2
100
AcDbEntity
  8
0
100
AcDbPolyline
 90
        8
 70
     0
 43
0.0
 10
302877.3941717273
 20
-14762.21071200613
 10
302792.4583938405
 20
-14762.21071200611
 42
-0.9999999999999998
 10
302792.4583938405
 20
-14742.21071200611
 10
302827.4583938405
 20
-14742.21071200611
 42
0.4142135623730951
 10
302832.4583938405
 20
-14737.21071200611
 10
302832.4583938405
 20
-14730.51509321781
 42
-0.3888787318369586
 10
302837.0226151267
 20
-14725.53411972737
 10
302849.5497454351
 20
-14724.43813783888
1001
AcDbBlockRepETag
1070
     1
1071
        6
1005
0
  0
LWPOLYLINE
  5
495
330
2
100
AcDbEntity
  8
0
100
AcDbPolyline
 90
        8
 70
     0
 43
0.0
 10
302877.7296233145
 20
-14760.71071200613
 10
302792.4583938405
 20
-14760.71071200611
 42
-1.0
 10
302792.4583938405
 20
-14743.71071200611
 10
302827.4583938405
 20
-14743.71071200611
 42
0.4142135623704747
 10
302833.9583938404
 20
-14737.21071200611
 10
302833.9583938404
 20
-14730.51509321781
 42
-0.3888787318321749
 10
302837.1533487407
 20
-14727.02841177451
 10
302849.605782467
 20
-14725.93896499015
1001
AcDbBlockRepETag
1070
     1
1071
        6
1005
0
  0
HATCH
  5
522
330
2
100
AcDbEntity
  8
0
100
AcDbHatch
 10
0.0
 20
0.0
 30
0.0
210
0.0
220
0.0
230
1.0
  2
ANSI31
 70
     0
 71
     1
 91
        1
 92
        7
 72
     1
 73
     1
 93
       17
 10
302884.9295346232
 20
-14756.24621097196
 42
0.0
 10
302885.8295018639
 20
-14757.14628759376
 42
0.0
 10
302884.9294491636
 20
-14758.04666142483
 42
0.0
 10
302884.9296124262
 20
-14759.84568761171
 42
0.0
 10
302885.7945443415
 20
-14760.71071200613
 42
0.0
 10
302897.0931033297
 20
-14760.71071200614
 42
0.0938849627346202
 10
302897.2759800775
 20
-14760.67606788615
 42
0.0
 10
302909.9110339104
 20
-14755.71071200614
 42
0.0
 10
303022.5057537707
 20
-14755.71071200614
 42
0.0
 10
303024.2942835722
 20
-14756.41357303739
 42
0.092212958462276
 10
303037.6709934304
 20
-14684.49870964573
 42
0.0858513391415599
 10
303026.0502018052
 20
-14617.31780572156
 42
0.0
 10
303022.5057537707
 20
-14618.71071200616
 42
0.0
 10
302909.9110339104
 20
-14618.71071200616
 42
0.0
 10
302897.2759800775
 20
-14613.74535612615
 42
0.0938849627346202
 10
302897.0931033297
 20
-14613.71071200616
 42
0.0
 10
302885.169062634
 20
-14613.71071200617
 42
0.0
 97
        4
330
30D
330
354
330
311
330
356
 75
     0
 76
     1
 52
0.0
 41
250.0
 77
     0
 78
     1
 53
45.0
 43
302884.9294491636
 44
-14760.71071200614
 45
-22.09708691207961
 46
22.09708691207961
 79
     0
 47
0.693207252591829
 98
        1
 10
302923.1709454494
 20
-14699.62705934631
1001
ACAD
1010
0.0
1020
0.0
1030
0.0
  0
HATCH
  5
5B6
330
2
100
AcDbEntity
  8
0
100
AcDbHatch
 10
0.0
 20
0.0
 30
0.0
210
0.0
220
0.0
230
1.0
  2
ANSI31
 70
     0
 71
     0
 91
        1
 92
        7
 72
     1
 73
     1
 93
       28
 10
302849.5497454351
 20
-14724.43813783889
 42
0.0
 10
302849.605782467
 20
-14725.93896499015
 42
0.0
 10
302837.1533487407
 20
-14727.02841177451
 42
0.3888787318321749
 10
302833.9583938404
 20
-14730.51509321781
 42
0.0
 10
302833.9583938404
 20
-14737.21071200611
 42
-0.4142135623704747
 10
302827.4583938405
 20
-14743.71071200611
 42
0.0
 10
302792.4583938405
 20
-14743.71071200611
 42
1.0
 10
302792.4583938405
 20
-14760.71071200611
 42
0.0
 10
302877.7296233146
 20
-14760.71071200613
 42
0.0
 10
302877.7295237314
 20
-14758.94664691772
 42
0.0
 10
302876.8294807213
 20
-14758.04656398262
 42
0.0
 10
302877.7294714285
 20
-14757.14618498614
 42
0.0
 10
302877.7294771733
 20
-14755.79656477351
 42
0.0
 10
302877.4894107463
 20
-14613.71071200617
 42
0.0
 10
302792.4583938405
 20
-14613.7107120062
 42
1.0
 10
302792.4583938405
 20
-14630.71071200619
 42
0.0
 10
302827.4583938405
 20
-14630.71071200619
 42
-0.4142135623704747
 10
302833.9583938404
 20
-14637.21071200619
 42
0.0
 10
302833.9583938404
 20
-14643.90633079449
 42
0.3888787318321749
 10
302837.1533487407
 20
-14647.39301223779
 42
0.0
 10
302849.605782467
 20
-14648.48245902215
 42
0.0
 10
302849.5497454351
 20
-14649.98328617343
 42
0.0
 10
302837.0226151267
 20
-14648.88730428493
 42
-0.3164516079550832
 10
302832.6233811427
 20
-14645.18016446195
 42
0.0
 10
302824.9583938405
 20
-14658.45631190874
 42
0.0
 10
302824.9583938405
 20
-14715.95631190878
 42
0.0
 10
302832.6249759324
 20
-14729.23522161239
 42
-0.3161081225356796
 10
302837.0226151267
 20
-14725.53411972737
 42
0.0
 97
        0
 75
     0
 76
     1
 52
0.0
 41
250.0
 77
     0
 78
     1
 53
45.0
 43
302783.9583938405
 44
-14760.71071200613
 45
-22.09708691207961
 46
22.09708691207961
 79
     0
 47
0.693207252591829
 98
        1
 10
302857.2699387991
 20
-14708.63875365486
1001
ACAD
1010
0.0
1020
0.0
1030
0.0
  0
LWPOLYLINE
  5
683
330
2
100
AcDbEntity
  8
0
100
AcDbPolyline
 90
        8
 70
     0
 43
0.0
 10
302877.4894107463
 20
-14613.71071200617
 10
302792.4583938405
 20
-14613.7107120062
 42
1.0
 10
302792.4583938405
 20
-14630.71071200619
 10
302827.4583938405
 20
-14630.71071200619
 42
-0.4142135623704747
 10
302833.9583938404
 20
-14637.21071200619
 10
302833.9583938404
 20
-14643.90633079449
 42
0.3888787318321749
 10
302837.1533487407
 20
-14647.39301223779
 10
302849.605782467
 20
-14648.48245902215
1001
AcDbBlockRepETag
1070
     1
1071
        6
1005
0
  0
HATCH
  5
9DF
330
2
100
AcDbEntity
  8
0
100
AcDbHatch
 10
0.0
 20
0.0
 30
0.0
210
0.0
220
0.0
230
1.0
  2
ANSI31
 70
     0
 71
     0
 91
        2
 92
        7
 72
     1
 73
     1
 93
      216
 10
303012.8436547133
 20
-15049.40383063964
 42
0.0
 10
303012.8959481589
 20
-15048.80611382079
 42
0.0
 10
303016.7026101639
 20
-15049.1391535921
 42
0.0
 10
303016.7026101632
 20
-15018.68590530005
 42
0.0
 10
303012.8959481589
 20
-15019.0189450713
 42
0.0
 10
303012.8436547133
 20
-15018.42122825245
 42
0.0
 10
303017.8246282037
 20
-15017.98544953871
 42
0.839099631179819
 10
303018.064956827
 20
-15015.23848080459
 42
0.0
 10
303011.6744852843
 20
-15013.52615911549
 42
0.0
 10
303011.5709576663
 20
-15013.512529446
 42
0.0
 10
302997.945250851
 20
-15013.512529446
 42
-0.6341370759950721
 10
302996.3253334977
 20
-15010.07616580965
 42
0.6341370759957849
 10
302993.7026101638
 20
-15004.51252944603
 42
0.0
 10
302951.8487263683
 20
-15004.51252944603
 42
0.0
 10
302951.775575669
 20
-15004.52638709403
 42
0.0
 10
302946.880236534
 20
-15006.45017003005
 42
0.0
 10
302946.5510583877
 20
-15006.51252944603
 42
0.0
 10
302901.8541619402
 20
-15006.51252944603
 42
0.0
 10
302901.5249837939
 20
-15006.45017003005
 42
0.0
 10
302896.6296446587
 20
-15004.52638709403
 42
0.0
 10
302896.5564939596
 20
-15004.51252944603
 42
0.0
 10
302851.8487263682
 20
-15004.51252944605
 42
0.0
 10
302851.775575669
 20
-15004.52638709405
 42
0.0
 10
302846.880236534
 20
-15006.45017003007
 42
0.0
 10
302846.5510583876
 20
-15006.51252944605
 42
0.0
 10
302801.8541619402
 20
-15006.51252944605
 42
0.0
 10
302801.5249837939
 20
-15006.45017003007
 42
0.0
 10
302796.6296446587
 20
-15004.52638709405
 42
0.0
 10
302796.5564939596
 20
-15004.51252944605
 42
0.0
 10
302751.8487263682
 20
-15004.51252944605
 42
0.0
 10
302751.7755756691
 20
-15004.52638709405
 42
0.0
 10
302746.8802365339
 20
-15006.45017003007
 42
0.0
 10
302746.5510583877
 20
-15006.51252944605
 42
0.0
 10
302701.8541619402
 20
-15006.51252944605
 42
0.0
 10
302701.5249837939
 20
-15006.45017003007
 42
0.0
 10
302696.6296446587
 20
-15004.52638709405
 42
0.0
 10
302696.5564939596
 20
-15004.51252944605
 42
0.0
 10
302651.8487263682
 20
-15004.51252944605
 42
0.0
 10
302651.7755756691
 20
-15004.52638709405
 42
0.0
 10
302646.880236534
 20
-15006.45017003007
 42
0.0
 10
302646.5510583876
 20
-15006.51252944605
 42
0.0
 10
302601.8541619402
 20
-15006.51252944605
 42
0.0
 10
302601.5249837939
 20
-15006.45017003007
 42
0.0
 10
302596.6296446587
 20
-15004.52638709405
 42
0.0
 10
302596.5564939596
 20
-15004.51252944605
 42
0.0
 10
302551.8487263683
 20
-15004.51252944605
 42
0.0
 10
302551.775575669
 20
-15004.52638709405
 42
0.0
 10
302546.8802365339
 20
-15006.45017003007
 42
0.0
 10
302546.5510583876
 20
-15006.51252944605
 42
0.0
 10
302501.8541619402
 20
-15006.51252944605
 42
0.0
 10
302501.5249837939
 20
-15006.45017003007
 42
0.0
 10
302496.6296446587
 20
-15004.52638709405
 42
0.0
 10
302496.5564939596
 20
-15004.51252944605
 42
0.0
 10
302451.8487263682
 20
-15004.51252944605
 42
0.0
 10
302451.775575669
 20
-15004.52638709405
 42
0.0
 10
302446.880236534
 20
-15006.45017003007
 42
0.0
 10
302446.5510583877
 20
-15006.51252944605
 42
0.0
 10
302401.8541619402
 20
-15006.51252944605
 42
0.0
 10
302401.5249837939
 20
-15006.45017003007
 42
0.0
 10
302396.6296446587
 20
-15004.52638709405
 42
0.0
 10
302396.5564939596
 20
-15004.51252944605
 42
0.0
 10
302351.8487263682
 20
-15004.51252944605
 42
0.0
 10
302351.7755756691
 20
-15004.52638709405
 42
0.0
 10
302346.880236534
 20
-15006.45017003007
 42
0.0
 10
302346.5510583876
 20
-15006.51252944605
 42
0.0
 10
302301.8541619402
 20
-15006.51252944605
 42
0.0
 10
302301.5249837939
 20
-15006.45017003007
 42
0.0
 10
302296.6296446587
 20
-15004.52638709405
 42
0.0
 10
302296.5564939596
 20
-15004.51252944605
 42
0.0
 10
302251.8487263682
 20
-15004.51252944605
 42
0.0
 10
302251.775575669
 20
-15004.52638709405
 42
0.0
 10
302246.880236534
 20
-15006.45017003007
 42
0.0
 10
302246.5510583876
 20
-15006.51252944605
 42
0.0
 10
302201.8541619402
 20
-15006.51252944605
 42
0.0
 10
302201.5249837938
 20
-15006.45017003007
 42
0.0
 10
302196.6296446587
 20
-15004.52638709405
 42
0.0
 10
302196.5564939596
 20
-15004.51252944605
 42
0.0
 10
302151.8487263682
 20
-15004.51252944605
 42
0.0
 10
302151.775575669
 20
-15004.52638709405
 42
0.0
 10
302146.8802365339
 20
-15006.45017003007
 42
0.0
 10
302146.5510583877
 20
-15006.51252944605
 42
0.0
 10
302101.8541619402
 20
-15006.51252944605
 42
0.0
 10
302101.5249837939
 20
-15006.45017003007
 42
0.0
 10
302096.6296446587
 20
-15004.52638709405
 42
0.0
 10
302096.5564939596
 20
-15004.51252944605
 42
0.0
 10
302051.8487263683
 20
-15004.51252944605
 42
0.0
 10
302051.775575669
 20
-15004.52638709405
 42
0.0
 10
302046.880236534
 20
-15006.45017003007
 42
0.0
 10
302046.5510583877
 20
-15006.51252944605
 42
0.0
 10
302001.8541619402
 20
-15006.51252944605
 42
0.0
 10
302001.5249837939
 20
-15006.45017003007
 42
0.0
 10
301996.6296446587
 20
-15004.52638709405
 42
0.0
 10
301996.5564939596
 20
-15004.51252944605
 42
0.0
 10
301951.8487263682
 20
-15004.51252944605
 42
0.0
 10
301951.7755756691
 20
-15004.52638709405
 42
0.0
 10
301946.880236534
 20
-15006.45017003007
 42
0.0
 10
301946.5510583876
 20
-15006.51252944605
 42
0.0
 10
301901.8541619402
 20
-15006.51252944605
 42
0.0
 10
301901.5249837939
 20
-15006.45017003007
 42
0.0
 10
301896.6296446587
 20
-15004.52638709405
 42
0.0
 10
301896.5564939596
 20
-15004.51252944605
 42
0.0
 10
301854.7026101639
 20
-15004.51252944606
 42
0.9999999999999998
 10
301854.7026101639
 20
-15011.31252944606
 42
0.0
 10
301868.7026101639
 20
-15011.31252944606
 42
-0.4142135623704749
 10
301871.3026101639
 20
-15013.91252944604
 42
0.0
 10
301871.3026101639
 20
-15016.59077696138
 42
0.3888787318321747
 10
301872.580592124
 20
-15017.9854495387
 42
0.0
 10
301877.5615656145
 20
-15018.42122825244
 42
0.0
 10
301877.5391508017
 20
-15019.02155911295
 42
0.0
 10
301872.5282986784
 20
-15018.58316635756
 42
-0.3888787318369585
 10
301870.7026101639
 20
-15016.59077696135
 42
0.0
 10
301870.7026101639
 20
-15051.23428193074
 42
-0.3888787318369585
 10
301872.5282986784
 20
-15049.24189253454
 42
0.0
 10
301877.5391508017
 20
-15048.80349977914
 42
0.0
 10
301877.5615656145
 20
-15049.40383063965
 42
0.0
 10
301872.580592124
 20
-15049.83960935339
 42
0.3888787318321747
 10
301871.3026101639
 20
-15051.23428193073
 42
0.0
 10
301871.3026101639
 20
-15053.91252944603
 42
-0.4142135623730951
 10
301868.7026101639
 20
-15056.51252944603
 42
0.0
 10
301854.7026101639
 20
-15056.51252944603
 42
0.9999999999999998
 10
301854.7026101639
 20
-15063.31252944603
 42
0.0
 10
301896.5564939596
 20
-15063.31252944604
 42
0.0
 10
301896.6296446587
 20
-15063.29867179804
 42
0.0
 10
301901.5249837939
 20
-15061.37488886202
 42
0.0
 10
301901.8541619402
 20
-15061.31252944604
 42
0.0
 10
301946.5510583876
 20
-15061.31252944604
 42
0.0
 10
301946.880236534
 20
-15061.37488886202
 42
0.0
 10
301951.7755756691
 20
-15063.29867179804
 42
0.0
 10
301951.8487263682
 20
-15063.31252944604
 42
0.0
 10
301996.5564939596
 20
-15063.31252944604
 42
0.0
 10
301996.6296446587
 20
-15063.29867179804
 42
0.0
 10
302001.5249837939
 20
-15061.37488886202
 42
0.0
 10
302001.8541619402
 20
-15061.31252944604
 42
0.0
 10
302046.5510583877
 20
-15061.31252944604
 42
0.0
 10
302046.880236534
 20
-15061.37488886202
 42
0.0
 10
302051.775575669
 20
-15063.29867179804
 42
0.0
 10
302051.8487263683
 20
-15063.31252944604
 42
0.0
 10
302096.5564939596
 20
-15063.31252944604
 42
0.0
 10
302096.6296446587
 20
-15063.29867179804
 42
0.0
 10
302101.5249837939
 20
-15061.37488886202
 42
0.0
 10
302101.8541619402
 20
-15061.31252944604
 42
0.0
 10
302146.5510583877
 20
-15061.31252944604
 42
0.0
 10
302146.8802365339
 20
-15061.37488886202
 42
0.0
 10
302151.775575669
 20
-15063.29867179804
 42
0.0
 10
302151.8487263682
 20
-15063.31252944604
 42
0.0
 10
302196.5564939596
 20
-15063.31252944604
 42
0.0
 10
302196.6296446587
 20
-15063.29867179804
 42
0.0
 10
302201.5249837938
 20
-15061.37488886202
 42
0.0
 10
302201.8541619402
 20
-15061.31252944604
 42
0.0
 10
302246.5510583876
 20
-15061.31252944604
 42
0.0
 10
302246.880236534
 20
-15061.37488886202
 42
0.0
 10
302251.775575669
 20
-15063.29867179804
 42
0.0
 10
302251.8487263682
 20
-15063.31252944604
 42
0.0
 10
302296.5564939596
 20
-15063.31252944604
 42
0.0
 10
302296.6296446587
 20
-15063.29867179804
 42
0.0
 10
302301.5249837939
 20
-15061.37488886202
 42
0.0
 10
302301.8541619402
 20
-15061.31252944604
 42
0.0
 10
302346.5510583876
 20
-15061.31252944604
 42
0.0
 10
302346.880236534
 20
-15061.37488886202
 42
0.0
 10
302351.7755756691
 20
-15063.29867179804
 42
0.0
 10
302351.8487263682
 20
-15063.31252944604
 42
0.0
 10
302396.5564939596
 20
-15063.31252944604
 42
0.0
 10
302396.6296446587
 20
-15063.29867179804
 42
0.0
 10
302401.5249837939
 20
-15061.37488886202
 42
0.0
 10
302401.8541619402
 20
-15061.31252944604
 42
0.0
 10
302446.5510583877
 20
-15061.31252944604
 42
0.0
 10
302446.880236534
 20
-15061.37488886202
 42
0.0
 10
302451.775575669
 20
-15063.29867179804
 42
0.0
 10
302451.8487263682
 20
-15063.31252944604
 42
0.0
 10
302496.5564939596
 20
-15063.31252944604
 42
0.0
 10
302496.6296446587
 20
-15063.29867179804
 42
0.0
 10
302501.5249837939
 20
-15061.37488886202
 42
0.0
 10
302501.8541619402
 20
-15061.31252944604
 42
0.0
 10
302546.5510583876
 20
-15061.31252944604
 42
0.0
 10
302546.8802365339
 20
-15061.37488886202
 42
0.0
 10
302551.775575669
 20
-15063.29867179804
 42
0.0
 10
302551.8487263683
 20
-15063.31252944604
 42
0.0
 10
302596.5564939596
 20
-15063.31252944604
 42
0.0
 10
302596.6296446587
 20
-15063.29867179804
 42
0.0
 10
302601.5249837939
 20
-15061.37488886202
 42
0.0
 10
302601.8541619402
 20
-15061.31252944604
 42
0.0
 10
302646.5510583876
 20
-15061.31252944604
 42
0.0
 10
302646.880236534
 20
-15061.37488886202
 42
0.0
 10
302651.7755756691
 20
-15063.29867179804
 42
0.0
 10
302651.8487263682
 20
-15063.31252944604
 42
0.0
 10
302696.5564939596
 20
-15063.31252944604
 42
0.0
 10
302696.6296446587
 20
-15063.29867179804
 42
0.0
 10
302701.5249837939
 20
-15061.37488886202
 42
0.0
 10
302701.8541619402
 20
-15061.31252944604
 42
0.0
 10
302746.5510583877
 20
-15061.31252944604
 42
0.0
 10
302746.8802365339
 20
-15061.37488886202
 42
0.0
 10
302751.7755756691
 20
-15063.29867179804
 42
0.0
 10
302751.8487263682
 20
-15063.31252944604
 42
0.0
 10
302796.5564939596
 20
-15063.31252944604
 42
0.0
 10
302796.6296446587
 20
-15063.29867179804
 42
0.0
 10
302801.5249837939
 20
-15061.37488886202
 42
0.0
 10
302801.8541619402
 20
-15061.31252944604
 42
0.0
 10
302846.5510583876
 20
-15061.31252944604
 42
0.0
 10
302846.880236534
 20
-15061.37488886202
 42
0.0
 10
302851.775575669
 20
-15063.29867179804
 42
0.0
 10
302851.8487263682
 20
-15063.31252944604
 42
0.0
 10
302896.5564939596
 20
-15063.31252944606
 42
0.0
 10
302896.6296446587
 20
-15063.29867179806
 42
0.0
 10
302901.5249837939
 20
-15061.37488886204
 42
0.0
 10
302901.8541619402
 20
-15061.31252944606
 42
0.0
 10
302946.5510583877
 20
-15061.31252944606
 42
0.0
 10
302946.880236534
 20
-15061.37488886204
 42
0.0
 10
302951.775575669
 20
-15063.29867179806
 42
0.0
 10
302951.8487263683
 20
-15063.31252944606
 42
0.0
 10
302993.7026101638
 20
-15063.31252944606
 42
0.6341370759957849
 10
302996.3253334977
 20
-15057.74889308244
 42
-0.6341370759950723
 10
302997.945250851
 20
-15054.31252944608
 42
0.0
 10
303011.5709576663
 20
-15054.31252944608
 42
0.0
 10
303011.6744852843
 20
-15054.2988997766
 42
0.0
 10
303018.064956827
 20
-15052.5865780875
 42
0.839099631179819
 10
303017.8246282037
 20
-15049.83960935338
 42
0.0
 97
        0
 92
       30
 72
     0
 73
     1
 93
        4
 10
302410.1837367186
 20
-15017.91252944604
 10
302410.1837367186
 20
-15049.91252944604
 10
302380.1837367186
 20
-15049.91252944604
 10
302380.1837367186
 20
-15017.91252944604
 97
        0
 75
     0
 76
     1
 52
0.0
 41
100.0
 77
     0
 78
     1
 53
45.0
 43
0.0
 44
0.0
 45
-8.838834764831842
 46
8.838834764831844
 79
     0
 47
0.0
 98
        2
 10
302689.3368517489
 20
-15037.2074268429
 10
302689.3368517489
 20
-15037.2074268429
1001
ACAD
1010
0.0
1020
0.0
1030
0.0
  0
DIMENSION
  5
9E0
330
2
100
AcDbEntity
  8
maten
100
AcDbDimension
280
     0
  2
*D8
 10
302410.1837367186
 20
-15063.91252944604
 30
0.0
 11
302395.1837367186
 21
-15033.91252944599
 31
0.0
 70
    32
 71
     5
 42
59.99999999999636
 73
     0
 74
     0
 75
     0
  3
ISO-25
100
AcDbAlignedDimension
 13
302480.4567814548
 23
-15003.91252944604
 33
0.0
 14
302463.7202207567
 24
-15063.91252944604
 34
0.0
 50
90.0
100
AcDbRotatedDimension
1001
ACAD
1000
DSTYLE
1002
{
1070
    40
1040
8.0
1070
    73
1070
     0
1070
    74
1070
     0
1002
}
  0
INSERT
  5
9E1
330
2
100
AcDbEntity
  8
mousse
100
AcDbBlockReference
  2
mousse 60 M500 basis 02
 10
301867.7026101638
 20
-15033.91076940708
 30
0.0
  0
LINE
  5
9E2
330
2
100
AcDbEntity
  8
0
100
AcDbLine
 10
303016.7026101639
 20
-15049.1391535921
 30
0.0
 11
303016.7026101632
 21
-15018.68590530005
 31
0.0
  0
LINE
  5
9E3
330
2
100
AcDbEntity
  8
0
100
AcDbLine
 10
301877.5391508017
 20
-15048.80349977914
 30
0.0
 11
301877.5914442473
 21
-15049.40121659799
 31
0.0
  0
LINE
  5
9E4
330
2
100
AcDbEntity
  8
0
100
AcDbLine
 10
303012.8959481588
 20
-15048.80611382079
 30
0.0
 11
303012.8436547133
 21
-15049.40383063964
 31
0.0
  0
LINE
  5
9E5
330
2
100
AcDbEntity
  8
0
100
AcDbLine
 10
301877.5391508017
 20
-15019.02155911295
 30
0.0
 11
301877.5914442473
 21
-15018.42384229416
 31
0.0
  0
LINE
  5
9E6
330
2
100
AcDbEntity
  8
0
100
AcDbLine
 10
301870.7026101639
 20
-15016.59077696135
 30
0.0
 11
301870.7026101639
 21
-15017.21461698438
 31
0.0
  0
LINE
  5
9E7
330
2
100
AcDbEntity
  8
0
100
AcDbLine
 10
301870.7026101639
 20
-15050.60692182979
 30
0.0
 11
301870.7026101639
 21
-15051.23428193074
 31
0.0
  0
LINE
  5
9E8
330
2
100
AcDbEntity
  8
0
100
AcDbLine
 10
303012.8959481588
 20
-15019.0189450713
 30
0.0
 11
303012.8436547133
 21
-15018.42122825245
 31
0.0
  0
LWPOLYLINE
  5
9E9
330
2
100
AcDbEntity
  8
0
100
AcDbPolyline
 90
        4
 70
     0
 43
0.0
 10
301870.7026101636
 20
-15017.21461698483
 10
301867.7026101638
 20
-15022.41076940708
 10
301867.7026101638
 20
-15045.41076940708
 10
301870.7026101636
 20
-15050.60692182933
  0
LWPOLYLINE
  5
9EA
330
2
100
AcDbEntity
  8
0
100
AcDbPolyline
 90
      104
 70
     0
 43
0.0
 10
303012.8959481588
 20
-15048.80611382079
 10
303017.8769216493
 20
-15049.24189253453
 42
-0.8390996311816444
 10
303018.220248254
 20
-15053.16613358328
 10
303011.8297767113
 20
-15054.87845527237
 42
-0.0655434628151784
 10
303011.5709576663
 20
-15054.91252944609
 10
302997.9452508509
 20
-15054.91252944609
 42
0.6341370759934755
 10
302996.7881670272
 20
-15057.36707490062
 42
-0.6341370759954755
 10
302993.7026101638
 20
-15063.91252944606
 10
302951.8487263682
 20
-15063.91252944606
 42
-0.0938849627467446
 10
302951.5561235715
 20
-15063.85709885407
 10
302946.6607844364
 20
-15062.63331591805
 42
0.0938849627447701
 10
302946.5510583877
 20
-15062.61252944605
 10
302901.8541619402
 20
-15062.61252944605
 42
0.0938849627444905
 10
302901.7444358914
 20
-15062.63331591805
 10
302896.8490967562
 20
-15063.85709885407
 42
-0.0938849627454487
 10
302896.5564939595
 20
-15063.91252944606
 10
302851.8487263681
 20
-15063.91252944604
 10
302851.8487263682
 20
-15063.91252944604
 42
-0.0938849627447989
 10
302851.5561235715
 20
-15063.85709885406
 10
302846.6607844364
 20
-15062.63331591804
 42
0.0938849627448
 10
302846.5510583876
 20
-15062.61252944604
 10
302801.8541619402
 20
-15062.61252944604
 42
0.0938849627447955
 10
302801.7444358914
 20
-15062.63331591804
 10
302796.8490967562
 20
-15063.85709885406
 42
-0.0938849627448075
 10
302796.5564939596
 20
-15063.91252944604
 10
302751.8487263682
 20
-15063.91252944604
 42
-0.0938849627448042
 10
302751.5561235715
 20
-15063.85709885406
 10
302746.6607844364
 20
-15062.63331591804
 42
0.0938849627448
 10
302746.5510583877
 20
-15062.61252944604
 10
302701.8541619402
 20
-15062.61252944604
 42
0.0938849627447958
 10
302701.7444358914
 20
-15062.63331591804
 10
302696.8490967562
 20
-15063.85709885406
 42
-0.0938849627448082
 10
302696.5564939595
 20
-15063.91252944604
 10
302651.8487263682
 20
-15063.91252944604
 42
-0.0938849627448043
 10
302651.5561235715
 20
-15063.85709885406
 10
302646.6607844364
 20
-15062.63331591804
 42
0.0938849627448
 10
302646.5510583876
 20
-15062.61252944604
 10
302601.8541619402
 20
-15062.61252944604
 42
0.0938849627447958
 10
302601.7444358914
 20
-15062.63331591804
 10
302596.8490967562
 20
-15063.85709885406
 42
-0.0938849627448082
 10
302596.5564939595
 20
-15063.91252944604
 10
302551.8487263682
 20
-15063.91252944604
 42
-0.0938849627448043
 10
302551.5561235715
 20
-15063.85709885406
 10
302546.6607844364
 20
-15062.63331591804
 42
0.0938849627448
 10
302546.5510583876
 20
-15062.61252944604
 10
302501.8541619402
 20
-15062.61252944604
 42
0.0938849627447971
 10
302501.7444358914
 20
-15062.63331591804
 10
302496.8490967562
 20
-15063.85709885406
 42
-0.0938849627448073
 10
302496.5564939595
 20
-15063.91252944604
 10
302451.8487263682
 20
-15063.91252944604
 42
-0.0938849627448043
 10
302451.5561235715
 20
-15063.85709885406
 10
302446.6607844364
 20
-15062.63331591804
 42
0.0938849627448013
 10
302446.5510583877
 20
-15062.61252944604
 10
302401.8541619402
 20
-15062.61252944604
 42
0.0938849627447971
 10
302401.7444358914
 20
-15062.63331591804
 10
302396.8490967562
 20
-15063.85709885406
 42
-0.0938849627448073
 10
302396.5564939596
 20
-15063.91252944604
 10
302351.8487263682
 20
-15063.91252944604
 42
-0.0938849627448043
 10
302351.5561235715
 20
-15063.85709885406
 10
302346.6607844364
 20
-15062.63331591804
 42
0.0938849627448013
 10
302346.5510583876
 20
-15062.61252944604
 10
302301.8541619402
 20
-15062.61252944604
 42
0.0938849627448058
 10
302301.7444358914
 20
-15062.63331591804
 10
302296.8490967562
 20
-15063.85709885406
 42
-0.093884962744804
 10
302296.5564939595
 20
-15063.91252944604
 10
302251.8487263682
 20
-15063.91252944604
 42
-0.0938849627448043
 10
302251.5561235715
 20
-15063.85709885406
 10
302246.6607844364
 20
-15062.63331591804
 42
0.0938849627448034
 10
302246.5510583876
 20
-15062.61252944604
 10
302201.8541619402
 20
-15062.61252944604
 42
0.0938849627448058
 10
302201.7444358914
 20
-15062.63331591804
 10
302196.8490967562
 20
-15063.85709885406
 42
-0.093884962744804
 10
302196.5564939595
 20
-15063.91252944604
 10
302151.8487263682
 20
-15063.91252944604
 42
-0.0938849627448048
 10
302151.5561235715
 20
-15063.85709885406
 10
302146.6607844364
 20
-15062.63331591804
 42
0.0938849627448049
 10
302146.5510583877
 20
-15062.61252944604
 10
302101.8541619402
 20
-15062.61252944604
 42
0.0938849627448045
 10
302101.7444358914
 20
-15062.63331591804
 10
302096.8490967562
 20
-15063.85709885406
 42
-0.0938849627448035
 10
302096.5564939595
 20
-15063.91252944604
 10
302051.8487263682
 20
-15063.91252944604
 42
-0.0938849627448041
 10
302051.5561235715
 20
-15063.85709885406
 10
302046.6607844364
 20
-15062.63331591804
 42
0.0938849627448049
 10
302046.5510583877
 20
-15062.61252944604
 10
302001.8541619402
 20
-15062.61252944604
 42
0.0938849627448045
 10
302001.7444358914
 20
-15062.63331591804
 10
301996.8490967562
 20
-15063.85709885406
 42
-0.0938849627448041
 10
301996.5564939596
 20
-15063.91252944604
 10
301951.8487263682
 20
-15063.91252944604
 42
-0.0938849627448041
 10
301951.5561235715
 20
-15063.85709885406
 10
301946.6607844364
 20
-15062.63331591804
 42
0.0938849627448049
 10
301946.5510583876
 20
-15062.61252944604
 10
301901.8541619402
 20
-15062.61252944604
 42
0.0938849627448045
 10
301901.7444358914
 20
-15062.63331591804
 10
301896.8490967562
 20
-15063.85709885406
 42
-0.0938849627448041
 10
301896.5564939595
 20
-15063.91252944604
 10
301854.7026101638
 20
-15063.91252944603
 42
-0.9999999999999998
 10
301854.7026101638
 20
-15055.91252944603
 10
301868.7026101638
 20
-15055.91252944603
 42
0.4142135623730951
 10
301870.7026101639
 20
-15053.91252944603
 10
301870.7026101639
 20
-15051.23428193071
 42
-0.3888787318369586
 10
301872.5282986784
 20
-15049.24189253453
 10
301877.5391508017
 20
-15048.80349977914
1001
AcDbBlockRepETag
1070
     1
1071
        6
1005
0
  0
LWPOLYLINE
  5
9EB
330
2
100
AcDbEntity
  8
0
100
AcDbPolyline
 90
      103
 70
     0
 43
0.0
 10
303012.8436547132
 20
-15049.40383063964
 10
303017.8246282037
 20
-15049.83960935338
 42
-0.8390996311806235
 10
303018.064956827
 20
-15052.5865780875
 10
303011.6744852843
 20
-15054.2988997766
 42
-0.0655434628260332
 10
303011.5709576663
 20
-15054.31252944609
 10
302997.9452508509
 20
-15054.31252944608
 42
0.6341370759883353
 10
302996.3253334977
 20
-15057.74889308245
 42
-0.6341370759942052
 10
302993.7026101638
 20
-15063.31252944606
 10
302951.8487263682
 20
-15063.31252944606
 42
-0.1267885249169354
 10
302951.7520589829
 20
-15063.2876163291
 10
302946.8338995741
 20
-15062.05812856634
 42
0.0800919680699687
 10
302946.5510583877
 20
-15062.01252944605
 10
302901.8541619402
 20
-15062.01252944605
 42
0.0800919680698079
 10
302901.5713207537
 20
-15062.05812856634
 10
302896.6531613448
 20
-15063.2876163291
 42
-0.1267885249104275
 10
302896.5564939595
 20
-15063.31252944606
 10
302851.8487263681
 20
-15063.31252944604
 42
-0.1267885249074624
 10
302851.7520589829
 20
-15063.28761632908
 10
302846.8338995741
 20
-15062.05812856632
 42
0.0800919680699784
 10
302846.5510583876
 20
-15062.01252944604
 10
302801.8541619402
 20
-15062.01252944604
 42
0.0800919680699762
 10
302801.5713207537
 20
-15062.05812856632
 10
302796.6531613448
 20
-15063.28761632908
 42
-0.1267885249075082
 10
302796.5564939596
 20
-15063.31252944604
 10
302751.8487263682
 20
-15063.31252944604
 42
-0.1267885249074915
 10
302751.7520589829
 20
-15063.28761632908
 10
302746.8338995741
 20
-15062.05812856632
 42
0.0800919680699784
 10
302746.5510583877
 20
-15062.01252944604
 10
302701.8541619402
 20
-15062.01252944604
 42
0.0800919680699762
 10
302701.5713207537
 20
-15062.05812856632
 10
302696.6531613448
 20
-15063.28761632908
 42
-0.1267885249075114
 10
302696.5564939595
 20
-15063.31252944604
 10
302651.8487263682
 20
-15063.31252944604
 42
-0.1267885249074915
 10
302651.7520589829
 20
-15063.28761632908
 10
302646.8338995741
 20
-15062.05812856632
 42
0.0800919680699774
 10
302646.5510583876
 20
-15062.01252944604
 10
302601.8541619402
 20
-15062.01252944604
 42
0.0800919680699762
 10
302601.5713207538
 20
-15062.05812856632
 10
302596.6531613449
 20
-15063.28761632908
 42
-0.1267885249075114
 10
302596.5564939595
 20
-15063.31252944604
 10
302551.8487263682
 20
-15063.31252944604
 42
-0.1267885249074915
 10
302551.7520589829
 20
-15063.28761632908
 10
302546.8338995741
 20
-15062.05812856632
 42
0.0800919680699774
 10
302546.5510583876
 20
-15062.01252944604
 10
302501.8541619402
 20
-15062.01252944604
 42
0.0800919680699767
 10
302501.5713207537
 20
-15062.05812856632
 10
302496.6531613448
 20
-15063.28761632908
 42
-0.1267885249075087
 10
302496.5564939595
 20
-15063.31252944604
 10
302451.8487263682
 20
-15063.31252944604
 42
-0.1267885249074915
 10
302451.7520589828
 20
-15063.28761632908
 10
302446.8338995741
 20
-15062.05812856632
 42
0.0800919680699779
 10
302446.5510583877
 20
-15062.01252944604
 10
302401.8541619402
 20
-15062.01252944604
 42
0.0800919680699767
 10
302401.5713207538
 20
-15062.05812856632
 10
302396.6531613448
 20
-15063.28761632908
 42
-0.1267885249075087
 10
302396.5564939596
 20
-15063.31252944604
 10
302351.8487263682
 20
-15063.31252944604
 42
-0.1267885249074915
 10
302351.7520589829
 20
-15063.28761632908
 10
302346.8338995741
 20
-15062.05812856632
 42
0.0800919680699778
 10
302346.5510583876
 20
-15062.01252944604
 10
302301.8541619402
 20
-15062.01252944604
 42
0.0800919680699791
 10
302301.5713207537
 20
-15062.05812856632
 10
302296.6531613449
 20
-15063.28761632908
 42
-0.1267885249074903
 10
302296.5564939595
 20
-15063.31252944604
 10
302251.8487263682
 20
-15063.31252944604
 42
-0.1267885249074915
 10
302251.7520589829
 20
-15063.28761632908
 10
302246.8338995741
 20
-15062.05812856632
 42
0.0800919680699784
 10
302246.5510583876
 20
-15062.01252944604
 10
302201.8541619402
 20
-15062.01252944604
 42
0.0800919680699791
 10
302201.5713207538
 20
-15062.05812856632
 10
302196.6531613449
 20
-15063.28761632908
 42
-0.1267885249074903
 10
302196.5564939595
 20
-15063.31252944604
 10
302151.8487263682
 20
-15063.31252944604
 42
-0.1267885249074943
 10
302151.7520589829
 20
-15063.28761632908
 10
302146.8338995741
 20
-15062.05812856632
 42
0.0800919680699797
 10
302146.5510583877
 20
-15062.01252944604
 10
302101.8541619402
 20
-15062.01252944604
 42
0.0800919680699788
 10
302101.5713207538
 20
-15062.05812856632
 10
302096.6531613448
 20
-15063.28761632908
 42
-0.1267885249074876
 10
302096.5564939595
 20
-15063.31252944604
 10
302051.8487263682
 20
-15063.31252944604
 42
-0.1267885249074909
 10
302051.7520589829
 20
-15063.28761632908
 10
302046.8338995741
 20
-15062.05812856632
 42
0.0800919680699797
 10
302046.5510583877
 20
-15062.01252944604
 10
302001.8541619402
 20
-15062.01252944604
 42
0.0800919680699788
 10
302001.5713207537
 20
-15062.05812856632
 10
301996.6531613448
 20
-15063.28761632908
 42
-0.1267885249074908
 10
301996.5564939596
 20
-15063.31252944604
 10
301951.8487263682
 20
-15063.31252944604
 42
-0.1267885249074909
 10
301951.7520589829
 20
-15063.28761632908
 10
301946.8338995741
 20
-15062.05812856632
 42
0.0800919680699797
 10
301946.5510583876
 20
-15062.01252944604
 10
301901.8541619402
 20
-15062.01252944604
 42
0.0800919680699788
 10
301901.5713207537
 20
-15062.05812856632
 10
301896.6531613449
 20
-15063.28761632908
 42
-0.1267885249075044
 10
301896.5564939595
 20
-15063.31252944604
 10
301854.7026101638
 20
-15063.31252944603
 42
-1.0
 10
301854.7026101638
 20
-15056.51252944603
 10
301868.7026101638
 20
-15056.51252944603
 42
0.4142135623705132
 10
301871.3026101638
 20
-15053.91252944603
 10
301871.3026101638
 20
-15051.23428193071
 42
-0.3888787318449804
 10
301872.5805921241
 20
-15049.83960935339
 10
301877.5914442473
 20
-15049.40121659799
1001
AcDbBlockRepETag
1070
     1
1071
        6
1005
0
  0
LWPOLYLINE
  5
9EC
330
2
100
AcDbEntity
  8
0
100
AcDbPolyline
 90
      104
 70
     0
 43
0.0
 10
303012.8959481588
 20
-15019.01894507136
 10
303017.8769216493
 20
-15018.58316635762
 42
0.8390996311816444
 10
303018.220248254
 20
-15014.65892530887
 10
303011.8297767113
 20
-15012.94660361977
 42
0.0655434628151784
 10
303011.5709576663
 20
-15012.91252944606
 10
302997.9452508509
 20
-15012.91252944606
 42
-0.6341370759934755
 10
302996.7881670272
 20
-15010.45798399153
 42
0.6341370759954755
 10
302993.7026101638
 20
-15003.91252944609
 10
302951.8487263682
 20
-15003.91252944609
 42
0.0938849627467446
 10
302951.5561235715
 20
-15003.96796003808
 10
302946.6607844364
 20
-15005.1917429741
 42
-0.0938849627447701
 10
302946.5510583877
 20
-15005.21252944609
 10
302901.8541619402
 20
-15005.21252944609
 42
-0.0938849627444905
 10
302901.7444358914
 20
-15005.1917429741
 10
302896.8490967562
 20
-15003.96796003808
 42
0.0938849627454487
 10
302896.5564939595
 20
-15003.91252944609
 10
302851.8487263681
 20
-15003.91252944611
 10
302851.8487263682
 20
-15003.91252944611
 42
0.0938849627447989
 10
302851.5561235715
 20
-15003.96796003809
 10
302846.6607844364
 20
-15005.19174297411
 42
-0.0938849627448
 10
302846.5510583876
 20
-15005.21252944611
 10
302801.8541619402
 20
-15005.21252944611
 42
-0.0938849627447955
 10
302801.7444358914
 20
-15005.19174297411
 10
302796.8490967562
 20
-15003.96796003809
 42
0.0938849627448075
 10
302796.5564939596
 20
-15003.91252944611
 10
302751.8487263682
 20
-15003.91252944611
 42
0.0938849627448042
 10
302751.5561235715
 20
-15003.96796003809
 10
302746.6607844364
 20
-15005.19174297411
 42
-0.0938849627448
 10
302746.5510583877
 20
-15005.21252944611
 10
302701.8541619402
 20
-15005.21252944611
 42
-0.0938849627447958
 10
302701.7444358914
 20
-15005.19174297411
 10
302696.8490967562
 20
-15003.96796003809
 42
0.0938849627448082
 10
302696.5564939595
 20
-15003.91252944611
 10
302651.8487263682
 20
-15003.91252944611
 42
0.0938849627448043
 10
302651.5561235715
 20
-15003.96796003809
 10
302646.6607844364
 20
-15005.19174297411
 42
-0.0938849627448
 10
302646.5510583876
 20
-15005.21252944611
 10
302601.8541619402
 20
-15005.21252944611
 42
-0.0938849627447958
 10
302601.7444358914
 20
-15005.19174297411
 10
302596.8490967562
 20
-15003.96796003809
 42
0.0938849627448082
 10
302596.5564939595
 20
-15003.91252944611
 10
302551.8487263682
 20
-15003.91252944611
 42
0.0938849627448043
 10
302551.5561235715
 20
-15003.96796003809
 10
302546.6607844364
 20
-15005.19174297411
 42
-0.0938849627448
 10
302546.5510583876
 20
-15005.21252944611
 10
302501.8541619402
 20
-15005.21252944611
 42
-0.0938849627447971
 10
302501.7444358914
 20
-15005.19174297411
 10
302496.8490967562
 20
-15003.96796003809
 42
0.0938849627448073
 10
302496.5564939595
 20
-15003.91252944611
 10
302451.8487263682
 20
-15003.91252944611
 42
0.0938849627448043
 10
302451.5561235715
 20
-15003.96796003809
 10
302446.6607844364
 20
-15005.19174297411
 42
-0.0938849627448013
 10
302446.5510583877
 20
-15005.21252944611
 10
302401.8541619402
 20
-15005.21252944611
 42
-0.0938849627447971
 10
302401.7444358914
 20
-15005.19174297411
 10
302396.8490967562
 20
-15003.96796003809
 42
0.0938849627448073
 10
302396.5564939596
 20
-15003.91252944611
 10
302351.8487263682
 20
-15003.91252944611
 42
0.0938849627448043
 10
302351.5561235715
 20
-15003.96796003809
 10
302346.6607844364
 20
-15005.19174297411
 42
-0.0938849627448013
 10
302346.5510583876
 20
-15005.21252944611
 10
302301.8541619402
 20
-15005.21252944611
 42
-0.0938849627448058
 10
302301.7444358914
 20
-15005.19174297411
 10
302296.8490967562
 20
-15003.96796003809
 42
0.093884962744804
 10
302296.5564939595
 20
-15003.91252944611
 10
302251.8487263682
 20
-15003.91252944611
 42
0.0938849627448043
 10
302251.5561235715
 20
-15003.96796003809
 10
302246.6607844364
 20
-15005.19174297411
 42
-0.0938849627448034
 10
302246.5510583876
 20
-15005.21252944611
 10
302201.8541619402
 20
-15005.21252944611
 42
-0.0938849627448058
 10
302201.7444358914
 20
-15005.19174297411
 10
302196.8490967562
 20
-15003.96796003809
 42
0.093884962744804
 10
302196.5564939595
 20
-15003.91252944611
 10
302151.8487263682
 20
-15003.91252944611
 42
0.0938849627448048
 10
302151.5561235715
 20
-15003.96796003809
 10
302146.6607844364
 20
-15005.19174297411
 42
-0.0938849627448049
 10
302146.5510583877
 20
-15005.21252944611
 10
302101.8541619402
 20
-15005.21252944611
 42
-0.0938849627448045
 10
302101.7444358914
 20
-15005.19174297411
 10
302096.8490967562
 20
-15003.96796003809
 42
0.0938849627448035
 10
302096.5564939595
 20
-15003.91252944611
 10
302051.8487263682
 20
-15003.91252944611
 42
0.0938849627448041
 10
302051.5561235715
 20
-15003.96796003809
 10
302046.6607844364
 20
-15005.19174297411
 42
-0.0938849627448049
 10
302046.5510583877
 20
-15005.21252944611
 10
302001.8541619402
 20
-15005.21252944611
 42
-0.0938849627448045
 10
302001.7444358914
 20
-15005.19174297411
 10
301996.8490967562
 20
-15003.96796003809
 42
0.0938849627448041
 10
301996.5564939596
 20
-15003.91252944611
 10
301951.8487263682
 20
-15003.91252944611
 42
0.0938849627448041
 10
301951.5561235715
 20
-15003.96796003809
 10
301946.6607844364
 20
-15005.19174297411
 42
-0.0938849627448049
 10
301946.5510583876
 20
-15005.21252944611
 10
301901.8541619402
 20
-15005.21252944611
 42
-0.0938849627448045
 10
301901.7444358914
 20
-15005.19174297411
 10
301896.8490967562
 20
-15003.96796003809
 42
0.0938849627448041
 10
301896.5564939595
 20
-15003.91252944611
 10
301854.7026101638
 20
-15003.91252944612
 42
0.9999999999999998
 10
301854.7026101638
 20
-15011.91252944612
 10
301868.7026101638
 20
-15011.91252944612
 42
-0.4142135623730951
 10
301870.7026101639
 20
-15013.91252944612
 10
301870.7026101639
 20
-15016.59077696144
 42
0.3888787318369586
 10
301872.5282986784
 20
-15018.58316635761
 10
301877.5391508017
 20
-15019.02155911301
1001
AcDbBlockRepETag
1070
     1
1071
        6
1005
0
  0
LWPOLYLINE
  5
9ED
330
2
100
AcDbEntity
  8
0
100
AcDbPolyline
 90
      103
 70
     0
 43
0.0
 10
303012.8436547132
 20
-15018.42122825251
 10
303017.8246282037
 20
-15017.98544953877
 42
0.8390996311806235
 10
303018.064956827
 20
-15015.23848080465
 10
303011.6744852843
 20
-15013.52615911555
 42
0.0655434628260332
 10
303011.5709576663
 20
-15013.51252944606
 10
302997.9452508509
 20
-15013.51252944606
 42
-0.6341370759883353
 10
302996.3253334977
 20
-15010.0761658097
 42
0.6341370759942052
 10
302993.7026101638
 20
-15004.51252944609
 10
302951.8487263682
 20
-15004.51252944609
 42
0.1267885249169354
 10
302951.7520589829
 20
-15004.53744256305
 10
302946.8338995741
 20
-15005.76693032581
 42
-0.0800919680699687
 10
302946.5510583877
 20
-15005.81252944609
 10
302901.8541619402
 20
-15005.81252944609
 42
-0.0800919680698079
 10
302901.5713207537
 20
-15005.76693032581
 10
302896.6531613448
 20
-15004.53744256305
 42
0.1267885249104275
 10
302896.5564939595
 20
-15004.51252944609
 10
302851.8487263681
 20
-15004.51252944611
 42
0.1267885249074624
 10
302851.7520589829
 20
-15004.53744256307
 10
302846.8338995741
 20
-15005.76693032583
 42
-0.0800919680699784
 10
302846.5510583876
 20
-15005.81252944611
 10
302801.8541619402
 20
-15005.81252944611
 42
-0.0800919680699762
 10
302801.5713207537
 20
-15005.76693032583
 10
302796.6531613448
 20
-15004.53744256306
 42
0.1267885249075082
 10
302796.5564939596
 20
-15004.51252944611
 10
302751.8487263682
 20
-15004.51252944611
 42
0.1267885249074915
 10
302751.7520589829
 20
-15004.53744256307
 10
302746.8338995741
 20
-15005.76693032583
 42
-0.0800919680699784
 10
302746.5510583877
 20
-15005.81252944611
 10
302701.8541619402
 20
-15005.81252944611
 42
-0.0800919680699762
 10
302701.5713207537
 20
-15005.76693032583
 10
302696.6531613448
 20
-15004.53744256306
 42
0.1267885249075114
 10
302696.5564939595
 20
-15004.51252944611
 10
302651.8487263682
 20
-15004.51252944611
 42
0.1267885249074915
 10
302651.7520589829
 20
-15004.53744256307
 10
302646.8338995741
 20
-15005.76693032583
 42
-0.0800919680699774
 10
302646.5510583876
 20
-15005.81252944611
 10
302601.8541619402
 20
-15005.81252944611
 42
-0.0800919680699762
 10
302601.5713207538
 20
-15005.76693032583
 10
302596.6531613449
 20
-15004.53744256306
 42
0.1267885249075114
 10
302596.5564939595
 20
-15004.51252944611
 10
302551.8487263682
 20
-15004.51252944611
 42
0.1267885249074915
 10
302551.7520589829
 20
-15004.53744256307
 10
302546.8338995741
 20
-15005.76693032583
 42
-0.0800919680699774
 10
302546.5510583876
 20
-15005.81252944611
 10
302501.8541619402
 20
-15005.81252944611
 42
-0.0800919680699767
 10
302501.5713207537
 20
-15005.76693032583
 10
302496.6531613448
 20
-15004.53744256306
 42
0.1267885249075087
 10
302496.5564939595
 20
-15004.51252944611
 10
302451.8487263682
 20
-15004.51252944611
 42
0.1267885249074915
 10
302451.7520589828
 20
-15004.53744256307
 10
302446.8338995741
 20
-15005.76693032583
 42
-0.0800919680699779
 10
302446.5510583877
 20
-15005.81252944611
 10
302401.8541619402
 20
-15005.81252944611
 42
-0.0800919680699767
 10
302401.5713207538
 20
-15005.76693032583
 10
302396.6531613448
 20
-15004.53744256306
 42
0.1267885249075087
 10
302396.5564939596
 20
-15004.51252944611
 10
302351.8487263682
 20
-15004.51252944611
 42
0.1267885249074915
 10
302351.7520589829
 20
-15004.53744256307
 10
302346.8338995741
 20
-15005.76693032583
 42
-0.0800919680699778
 10
302346.5510583876
 20
-15005.81252944611
 10
302301.8541619402
 20
-15005.81252944611
 42
-0.0800919680699791
 10
302301.5713207537
 20
-15005.76693032583
 10
302296.6531613449
 20
-15004.53744256306
 42
0.1267885249074903
 10
302296.5564939595
 20
-15004.51252944611
 10
302251.8487263682
 20
-15004.51252944611
 42
0.1267885249074915
 10
302251.7520589829
 20
-15004.53744256307
 10
302246.8338995741
 20
-15005.76693032583
 42
-0.0800919680699784
 10
302246.5510583876
 20
-15005.81252944611
 10
302201.8541619402
 20
-15005.81252944611
 42
-0.0800919680699791
 10
302201.5713207538
 20
-15005.76693032583
 10
302196.6531613449
 20
-15004.53744256306
 42
0.1267885249074903
 10
302196.5564939595
 20
-15004.51252944611
 10
302151.8487263682
 20
-15004.51252944611
 42
0.1267885249074943
 10
302151.7520589829
 20
-15004.53744256307
 10
302146.8338995741
 20
-15005.76693032583
 42
-0.0800919680699797
 10
302146.5510583877
 20
-15005.81252944611
 10
302101.8541619402
 20
-15005.81252944611
 42
-0.0800919680699788
 10
302101.5713207538
 20
-15005.76693032583
 10
302096.6531613448
 20
-15004.53744256306
 42
0.1267885249074876
 10
302096.5564939595
 20
-15004.51252944611
 10
302051.8487263682
 20
-15004.51252944611
 42
0.1267885249074909
 10
302051.7520589829
 20
-15004.53744256307
 10
302046.8338995741
 20
-15005.76693032583
 42
-0.0800919680699797
 10
302046.5510583877
 20
-15005.81252944611
 10
302001.8541619402
 20
-15005.81252944611
 42
-0.0800919680699788
 10
302001.5713207537
 20
-15005.76693032583
 10
301996.6531613448
 20
-15004.53744256306
 42
0.1267885249074908
 10
301996.5564939596
 20
-15004.51252944611
 10
301951.8487263682
 20
-15004.51252944611
 42
0.1267885249074909
 10
301951.7520589829
 20
-15004.53744256307
 10
301946.8338995741
 20
-15005.76693032583
 42
-0.0800919680699797
 10
301946.5510583876
 20
-15005.81252944611
 10
301901.8541619402
 20
-15005.81252944611
 42
-0.0800919680699788
 10
301901.5713207537
 20
-15005.76693032583
 10
301896.6531613449
 20
-15004.53744256306
 42
0.1267885249075044
 10
301896.5564939595
 20
-15004.51252944611
 10
301854.7026101638
 20
-15004.51252944612
 42
1.0
 10
301854.7026101638
 20
-15011.31252944612
 10
301868.7026101638
 20
-15011.31252944612
 42
-0.4142135623705132
 10
301871.3026101638
 20
-15013.91252944612
 10
301871.3026101638
 20
-15016.59077696144
 42
0.3888787318449804
 10
301872.5805921241
 20
-15017.98544953876
 10
301877.5914442473
 20
-15018.42384229416
1001
AcDbBlockRepETag
1070
     1
1071
        6
1005
0
  0
LINE
  5
A03
330
2
100
AcDbEntity
  8
0
100
AcDbLine
 10
302129.5735975705
 20
-15210.45103955837
 30
0.0
 11
302107.2197137749
 21
-15210.45103955837
 31
0.0
  0
ELLIPSE
  5
A04
330
2
100
AcDbEntity
  8
0
100
AcDbEllipse
 10
302107.2770284234
 20
-15210.43751047053
 30
0.0
 11
100.0000000000001
 21
0.0
 31
0.0
210
0.0
220
0.0
230
1.0
 40
0.6659410388412452
 41
0.0
 42
6.283185307179586
  0
LINE
  5
A05
330
2
100
AcDbEntity
  8
maten
100
AcDbLine
 10
302179.5681619986
 20
-15206.60862260253
 30
0.0
 11
302179.5681619986
 21
-15168.78862260253
 31
0.0
  0
LINE
  5
A06
330
2
100
AcDbEntity
  8
maten
100
AcDbLine
 10
302079.6778880473
 20
-15206.80862260253
 30
0.0
 11
302079.6778880473
 21
-15168.78862260253
 31
0.0
  0
LINE
  5
A07
330
2
100
AcDbEntity
  8
maten
100
AcDbLine
 10
302169.5681619986
 20
-15173.78862260253
 30
0.0
 11
302089.6778880473
 21
-15173.78862260253
 31
0.0
  0
SOLID
  5
A08
330
2
100
AcDbEntity
  8
maten
100
AcDbTrace
 10
302169.5681619986
 20
-15175.4552892692
 30
0.0
 11
302169.5681619986
 21
-15172.12195593586
 31
0.0
 12
302179.5681619986
 22
-15173.78862260253
 32
0.0
 13
302179.5681619986
 23
-15173.78862260253
 33
0.0
  0
SOLID
  5
A09
330
2
100
AcDbEntity
  8
maten
100
AcDbTrace
 10
302089.6778880473
 20
-15175.4552892692
 30
0.0
 11
302089.6778880473
 21
-15172.12195593586
 31
0.0
 12
302079.6778880473
 22
-15173.78862260253
 32
0.0
 13
302079.6778880473
 23
-15173.78862260253
 33
0.0
  0
MTEXT
  5
A0A
330
2
100
AcDbEntity
  8
maten
100
AcDbMText
 10
302129.6230250229
 20
-15164.76534987527
 30
0.0
 40
10.0
 41
0.0
 46
0.0
 71
     5
 72
     1
  1
100
 73
     1
 44
1.0
  0
LINE
  5
A0B
330
2
100
AcDbEntity
  8
maten
100
AcDbLine
 10
302122.7615395024
 20
-15209.15103955838
 30
0.0
 11
302105.9910263616
 21
-15209.15103955838
 31
0.0
  0
LINE
  5
A0C
330
2
100
AcDbEntity
  8
maten
100
AcDbLine
 10
302117.8662003672
 20
-15210.45103955837
 30
0.0
 11
302105.9910263616
 21
-15210.45103955837
 31
0.0
  0
LINE
  5
A0D
330
2
100
AcDbEntity
  8
maten
100
AcDbLine
 10
302110.9910263616
 20
-15199.15103955838
 30
0.0
 11
302110.9910263616
 21
-15189.15103955838
 31
0.0
  0
LINE
  5
A0E
330
2
100
AcDbEntity
  8
maten
100
AcDbLine
 10
302110.9910263616
 20
-15220.45103955838
 30
0.0
 11
302110.9910263616
 21
-15242.11770622504
 31
0.0
  0
LINE
  5
A0F
330
2
100
AcDbEntity
  8
maten
100
AcDbLine
 10
302110.9910263616
 20
-15208.52725662235
 30
0.0
 11
302110.9910263616
 21
-15210.45103955837
 31
0.0
  0
SOLID
  5
A10
330
2
100
AcDbEntity
  8
maten
100
AcDbTrace
 10
302109.3243596949
 20
-15199.15103955838
 30
0.0
 11
302112.6576930282
 21
-15199.15103955838
 31
0.0
 12
302110.9910263616
 22
-15209.15103955838
 32
0.0
 13
302110.9910263616
 23
-15209.15103955838
 33
0.0
  0
SOLID
  5
A11
330
2
100
AcDbEntity
  8
maten
100
AcDbTrace
 10
302109.3243596949
 20
-15220.45103955838
 30
0.0
 11
302112.6576930282
 21
-15220.45103955838
 31
0.0
 12
302110.9910263616
 22
-15210.45103955837
 32
0.0
 13
302110.9910263616
 23
-15210.45103955837
 33
0.0
  0
MTEXT
  5
A12
330
2
100
AcDbEntity
  8
maten
100
AcDbMText
 10
302103.4910263616
 20
-15236.28437289172
 30
0.0
 40
10.0
 41
0.0
 46
0.0
 71
     5
 72
     1
  1
1.3
 11
-0.0000000000000001
 21
1.0
 31
0.0
 73
     1
 44
1.0
  0
LINE
  5
A13
330
2
100
AcDbEntity
  8
0
100
AcDbLine
 10
302057.2197137749
 20
-15209.15103955837
 30
0.0
 11
302079.5681619985
 21
-15209.15103955837
 31
0.0
  0
LINE
  5
A14
330
2
100
AcDbEntity
  8
0
100
AcDbLine
 10
302057.2197137749
 20
-15209.15103955837
 30
0.0
 11
302034.8712655512
 21
-15209.15103955837
 31
0.0
  0
ARC
  5
A15
330
2
100
AcDbEntity
  8
0
100
AcDbCircle
 10
302034.8712655512
 20
-15209.45103955837
 30
0.0
 40
0.3
100
AcDbArc
 50
90.0
 51
111.4539614813381
  0
ARC
  5
A16
330
2
100
AcDbEntity
  8
0
100
AcDbCircle
 10
302029.5735975706
 20
-15209.65103955838
 30
0.0
 40
0.8
100
AcDbArc
 50
270.0
 51
291.4539614777819
  0
LINE
  5
A17
330
2
100
AcDbEntity
  8
0
100
AcDbLine
 10
302029.5735975706
 20
-15210.45103955837
 30
0.0
 11
302007.2197137749
 21
-15210.45103955837
 31
0.0
  0
LINE
  5
A18
330
2
100
AcDbEntity
  8
0
100
AcDbLine
 10
302034.7615395024
 20
-15209.17182603037
 30
0.0
 11
302029.8662003673
 21
-15210.39560896639
 31
0.0
  0
LINE
  5
A19
330
2
100
AcDbEntity
  8
0
100
AcDbLine
 10
302084.8658299792
 20
-15210.45103955837
 30
0.0
 11
302107.2197137749
 21
-15210.45103955837
 31
0.0
  0
LINE
  5
A1A
330
2
100
AcDbEntity
  8
0
100
AcDbLine
 10
302079.6778880473
 20
-15209.17182603037
 30
0.0
 11
302084.5732271825
 21
-15210.39560896639
 31
0.0
  0
ARC
  5
A1B
330
2
100
AcDbEntity
  8
0
100
AcDbCircle
 10
302079.5681619985
 20
-15209.45103955837
 30
0.0
 40
0.3
100
AcDbArc
 50
68.5460385186619
 51
90.0
  0
ARC
  5
A1C
330
2
100
AcDbEntity
  8
0
100
AcDbCircle
 10
302084.8658299792
 20
-15209.65103955838
 30
0.0
 40
0.8
100
AcDbArc
 50
248.5460385222181
 51
270.0
  0
LINE
  5
A1D
330
2
100
AcDbEntity
  8
maten
100
AcDbLine
 10
302179.5681619986
 20
-15206.60862260253
 30
0.0
 11
302179.5681619986
 21
-15188.26862260253
 31
0.0
  0
LINE
  5
A1E
330
2
100
AcDbEntity
  8
maten
100
AcDbLine
 10
302134.8712655512
 20
-15206.80862260253
 30
0.0
 11
302134.8712655512
 21
-15188.26862260253
 31
0.0
  0
LINE
  5
A1F
330
2
100
AcDbEntity
  8
maten
100
AcDbLine
 10
302169.5681619986
 20
-15193.26862260253
 30
0.0
 11
302144.8712655511
 21
-15193.26862260253
 31
0.0
  0
SOLID
  5
A20
330
2
100
AcDbEntity
  8
maten
100
AcDbTrace
 10
302169.5681619986
 20
-15194.9352892692
 30
0.0
 11
302169.5681619986
 21
-15191.60195593586
 31
0.0
 12
302179.5681619986
 22
-15193.26862260253
 32
0.0
 13
302179.5681619986
 23
-15193.26862260253
 33
0.0
  0
SOLID
  5
A21
330
2
100
AcDbEntity
  8
maten
100
AcDbTrace
 10
302144.8712655511
 20
-15194.9352892692
 30
0.0
 11
302144.8712655511
 21
-15191.60195593586
 31
0.0
 12
302134.8712655512
 22
-15193.26862260253
 32
0.0
 13
302134.8712655512
 23
-15193.26862260253
 33
0.0
  0
MTEXT
  5
A22
330
2
100
AcDbEntity
  8
maten
100
AcDbMText
 10
302157.2197137749
 20
-15183.80092352936
 30
0.0
 40
10.0
 41
0.0
 46
0.0
 71
     5
 72
     1
  1
45
 73
     1
 44
1.0
  0
LINE
  5
A23
330
2
100
AcDbEntity
  8
0
100
AcDbLine
 10
302157.2197137749
 20
-15209.15103955837
 30
0.0
 11
302179.5681619986
 21
-15209.15103955837
 31
0.0
  0
LINE
  5
A24
330
2
100
AcDbEntity
  8
0
100
AcDbLine
 10
302157.2197137749
 20
-15209.15103955837
 30
0.0
 11
302134.8712655512
 21
-15209.15103955837
 31
0.0
  0
LINE
  5
A25
330
2
100
AcDbEntity
  8
0
100
AcDbLine
 10
302134.7615395024
 20
-15209.17182603037
 30
0.0
 11
302129.8662003673
 21
-15210.39560896639
 31
0.0
  0
ARC
  5
A26
330
2
100
AcDbEntity
  8
0
100
AcDbCircle
 10
302134.8712655512
 20
-15209.45103955837
 30
0.0
 40
0.3
100
AcDbArc
 50
90.0
 51
111.4539614813381
  0
ARC
  5
A27
330
2
100
AcDbEntity
  8
0
100
AcDbCircle
 10
302129.5735975705
 20
-15209.65103955838
 30
0.0
 40
0.8
100
AcDbArc
 50
270.0
 51
291.4539614777819
  0
LINE
  5
A28
330
2
100
AcDbEntity
  8
0
100
AcDbLine
 10
302207.2743602258
 20
-15209.95103955837
 30
0.0
 11
302207.2197137749
 21
-15209.95103955837
 31
0.0
  0
LINE
  5
A29
330
2
100
AcDbEntity
  8
0
100
AcDbLine
 10
302207.2770263598
 20
-15210.45103955837
 30
0.0
 11
302207.2197137749
 21
-15210.45103955837
 31
0.0
  0
LINE
  5
A2A
330
2
100
AcDbEntity
  8
0
100
AcDbLine
 10
302179.6778880473
 20
-15209.17182603037
 30
0.0
 11
302184.5732271824
 21
-15210.39560896639
 31
0.0
  0
ARC
  5
A2B
330
2
100
AcDbEntity
  8
0
100
AcDbCircle
 10
302179.5681619986
 20
-15209.45103955837
 30
0.0
 40
0.3
100
AcDbArc
 50
68.5460385186619
 51
90.0
  0
ARC
  5
A2C
330
2
100
AcDbEntity
  8
0
100
AcDbCircle
 10
302184.8658299792
 20
-15209.65103955838
 30
0.0
 40
0.8
100
AcDbArc
 50
248.5460385222181
 51
270.0
  0
LINE
  5
A2D
330
2
100
AcDbEntity
  8
0
100
AcDbLine
 10
302184.8658299792
 20
-15210.45103955837
 30
0.0
 11
302207.2197137749
 21
-15210.45103955837
 31
0.0
  0
LINE
  5
A2E
330
2
100
AcDbEntity
  8
0
100
AcDbLine
 10
302130.2324881978
 20
-14839.12904338144
 30
0.0
 11
302107.8786044021
 21
-14839.12904338144
 31
0.0
  0
ELLIPSE
  5
A2F
330
2
100
AcDbEntity
  8
0
100
AcDbEllipse
 10
302107.9359190506
 20
-14839.14257246928
 30
0.0
 11
100.0000000000001
 21
0.0
 31
0.0
210
0.0
220
0.0
230
-1.0
 40
0.6659410388412452
 41
0.0
 42
6.283185307179586
  0
LINE
  5
A30
330
2
100
AcDbEntity
  8
maten
100
AcDbLine
 10
302180.2270526257
 20
-14842.97146033729
 30
0.0
 11
302180.2270526257
 21
-14880.79146033729
 31
0.0
  0
LINE
  5
A31
330
2
100
AcDbEntity
  8
maten
100
AcDbLine
 10
302080.3367786745
 20
-14842.77146033729
 30
0.0
 11
302080.3367786745
 21
-14880.79146033729
 31
0.0
  0
LINE
  5
A32
330
2
100
AcDbEntity
  8
maten
100
AcDbLine
 10
302170.2270526258
 20
-14875.79146033729
 30
0.0
 11
302090.3367786746
 21
-14875.79146033729
 31
0.0
  0
SOLID
  5
A33
330
2
100
AcDbEntity
  8
maten
100
AcDbTrace
 10
302170.2270526258
 20
-14874.12479367062
 30
0.0
 11
302170.2270526258
 21
-14877.45812700396
 31
0.0
 12
302180.2270526257
 22
-14875.79146033729
 32
0.0
 13
302180.2270526257
 23
-14875.79146033729
 33
0.0
  0
SOLID
  5
A34
330
2
100
AcDbEntity
  8
maten
100
AcDbTrace
 10
302090.3367786746
 20
-14874.12479367062
 30
0.0
 11
302090.3367786746
 21
-14877.45812700396
 31
0.0
 12
302080.3367786745
 22
-14875.79146033729
 32
0.0
 13
302080.3367786745
 23
-14875.79146033729
 33
0.0
  0
MTEXT
  5
A35
330
2
100
AcDbEntity
  8
maten
100
AcDbMText
 10
302130.2819156501
 20
-14868.29146033729
 30
0.0
 40
10.0
 41
0.0
 46
0.0
 71
     5
 72
     1
  1
100
 73
     1
 44
1.0
  0
LINE
  5
A36
330
2
100
AcDbEntity
  8
maten
100
AcDbLine
 10
302123.4204301296
 20
-14840.42904338144
 30
0.0
 11
302106.6499169887
 21
-14840.42904338144
 31
0.0
  0
LINE
  5
A37
330
2
100
AcDbEntity
  8
maten
100
AcDbLine
 10
302118.5250909944
 20
-14839.12904338144
 30
0.0
 11
302106.6499169887
 21
-14839.12904338144
 31
0.0
  0
LINE
  5
A38
330
2
100
AcDbEntity
  8
maten
100
AcDbLine
 10
302111.6499169888
 20
-14850.42904338144
 30
0.0
 11
302111.6499169888
 21
-14860.42904338144
 31
0.0
  0
LINE
  5
A39
330
2
100
AcDbEntity
  8
maten
100
AcDbLine
 10
302111.6499169888
 20
-14829.12904338144
 30
0.0
 11
302111.6499169888
 21
-14807.46237671478
 31
0.0
  0
LINE
  5
A3A
330
2
100
AcDbEntity
  8
maten
100
AcDbLine
 10
302111.6499169888
 20
-14841.05282631746
 30
0.0
 11
302111.6499169888
 21
-14839.12904338144
 31
0.0
  0
SOLID
  5
A3B
330
2
100
AcDbEntity
  8
maten
100
AcDbTrace
 10
302109.9832503221
 20
-14850.42904338144
 30
0.0
 11
302113.3165836555
 21
-14850.42904338144
 31
0.0
 12
302111.6499169888
 22
-14840.42904338144
 32
0.0
 13
302111.6499169888
 23
-14840.42904338144
 33
0.0
  0
SOLID
  5
A3C
330
2
100
AcDbEntity
  8
maten
100
AcDbTrace
 10
302109.9832503221
 20
-14829.12904338144
 30
0.0
 11
302113.3165836555
 21
-14829.12904338144
 31
0.0
 12
302111.6499169888
 22
-14839.12904338144
 32
0.0
 13
302111.6499169888
 23
-14839.12904338144
 33
0.0
  0
MTEXT
  5
A3D
330
2
100
AcDbEntity
  8
maten
100
AcDbMText
 10
302104.1499169888
 20
-14813.2957100481
 30
0.0
 40
10.0
 41
0.0
 46
0.0
 71
     5
 72
     1
  1
1.3
 11
0.0000000000000001
 21
1.0
 31
0.0
 73
     1
 44
1.0
  0
LINE
  5
A3E
330
2
100
AcDbEntity
  8
0
100
AcDbLine
 10
302057.8786044021
 20
-14840.42904338144
 30
0.0
 11
302080.2270526258
 21
-14840.42904338144
 31
0.0
  0
LINE
  5
A3F
330
2
100
AcDbEntity
  8
0
100
AcDbLine
 10
302057.8786044021
 20
-14840.42904338144
 30
0.0
 11
302035.5301561784
 21
-14840.42904338144
 31
0.0
  0
ARC
  5
A40
330
2
100
AcDbEntity
  8
0
100
AcDbCircle
 10
302035.5301561784
 20
-14840.12904338144
 30
0.0
 40
0.3
100
AcDbArc
 50
248.5460385186619
 51
270.0
  0
ARC
  5
A41
330
2
100
AcDbEntity
  8
0
100
AcDbCircle
 10
302030.2324881978
 20
-14839.92904338144
 30
0.0
 40
0.8
100
AcDbArc
 50
68.54603852221811
 51
90.0
  0
LINE
  5
A42
330
2
100
AcDbEntity
  8
0
100
AcDbLine
 10
302030.2324881978
 20
-14839.12904338144
 30
0.0
 11
302007.8786044021
 21
-14839.12904338144
 31
0.0
  0
LINE
  5
A43
330
2
100
AcDbEntity
  8
0
100
AcDbLine
 10
302035.4204301296
 20
-14840.40825690945
 30
0.0
 11
302030.5250909944
 21
-14839.18447397342
 31
0.0
  0
LINE
  5
A44
330
2
100
AcDbEntity
  8
0
100
AcDbLine
 10
302085.5247206065
 20
-14839.12904338144
 30
0.0
 11
302107.8786044021
 21
-14839.12904338144
 31
0.0
  0
LINE
  5
A45
330
2
100
AcDbEntity
  8
0
100
AcDbLine
 10
302080.3367786745
 20
-14840.40825690945
 30
0.0
 11
302085.2321178097
 21
-14839.18447397342
 31
0.0
  0
ARC
  5
A46
330
2
100
AcDbEntity
  8
0
100
AcDbCircle
 10
302080.2270526258
 20
-14840.12904338144
 30
0.0
 40
0.3
100
AcDbArc
 50
270.0
 51
291.4539614813381
  0
ARC
  5
A47
330
2
100
AcDbEntity
  8
0
100
AcDbCircle
 10
302085.5247206065
 20
-14839.92904338144
 30
0.0
 40
0.8
100
AcDbArc
 50
90.0
 51
111.4539614777819
  0
LINE
  5
A48
330
2
100
AcDbEntity
  8
maten
100
AcDbLine
 10
302180.2270526257
 20
-14842.97146033729
 30
0.0
 11
302180.2270526257
 21
-14861.31146033729
 31
0.0
  0
LINE
  5
A49
330
2
100
AcDbEntity
  8
maten
100
AcDbLine
 10
302135.5301561784
 20
-14842.77146033729
 30
0.0
 11
302135.5301561784
 21
-14861.31146033729
 31
0.0
  0
LINE
  5
A4A
330
2
100
AcDbEntity
  8
maten
100
AcDbLine
 10
302170.2270526258
 20
-14856.31146033729
 30
0.0
 11
302145.5301561783
 21
-14856.31146033729
 31
0.0
  0
SOLID
  5
A4B
330
2
100
AcDbEntity
  8
maten
100
AcDbTrace
 10
302170.2270526258
 20
-14854.64479367062
 30
0.0
 11
302170.2270526258
 21
-14857.97812700395
 31
0.0
 12
302180.2270526257
 22
-14856.31146033729
 32
0.0
 13
302180.2270526257
 23
-14856.31146033729
 33
0.0
  0
SOLID
  5
A4C
330
2
100
AcDbEntity
  8
maten
100
AcDbTrace
 10
302145.5301561783
 20
-14854.64479367062
 30
0.0
 11
302145.5301561783
 21
-14857.97812700395
 31
0.0
 12
302135.5301561784
 22
-14856.31146033729
 32
0.0
 13
302135.5301561784
 23
-14856.31146033729
 33
0.0
  0
MTEXT
  5
A4D
330
2
100
AcDbEntity
  8
maten
100
AcDbMText
 10
302157.8786044021
 20
-14848.81146033729
 30
0.0
 40
10.0
 41
0.0
 46
0.0
 71
     5
 72
     1
  1
45
 73
     1
 44
1.0
  0
LINE
  5
A4E
330
2
100
AcDbEntity
  8
0
100
AcDbLine
 10
302157.8786044021
 20
-14840.42904338144
 30
0.0
 11
302180.2270526257
 21
-14840.42904338144
 31
0.0
  0
LINE
  5
A4F
330
2
100
AcDbEntity
  8
0
100
AcDbLine
 10
302157.8786044021
 20
-14840.42904338144
 30
0.0
 11
302135.5301561784
 21
-14840.42904338144
 31
0.0
  0
LINE
  5
A50
330
2
100
AcDbEntity
  8
0
100
AcDbLine
 10
302135.4204301296
 20
-14840.40825690945
 30
0.0
 11
302130.5250909945
 21
-14839.18447397342
 31
0.0
  0
ARC
  5
A51
330
2
100
AcDbEntity
  8
0
100
AcDbCircle
 10
302135.5301561784
 20
-14840.12904338144
 30
0.0
 40
0.3
100
AcDbArc
 50
248.5460385186619
 51
270.0
  0
ARC
  5
A52
330
2
100
AcDbEntity
  8
0
100
AcDbCircle
 10
302130.2324881978
 20
-14839.92904338144
 30
0.0
 40
0.8
100
AcDbArc
 50
68.54603852221811
 51
90.0
  0
LINE
  5
A53
330
2
100
AcDbEntity
  8
0
100
AcDbLine
 10
302207.933250853
 20
-14839.62904338144
 30
0.0
 11
302207.8786044021
 21
-14839.62904338144
 31
0.0
  0
LINE
  5
A54
330
2
100
AcDbEntity
  8
0
100
AcDbLine
 10
302207.935916987
 20
-14839.12904338144
 30
0.0
 11
302207.8786044021
 21
-14839.12904338144
 31
0.0
  0
LINE
  5
A55
330
2
100
AcDbEntity
  8
0
100
AcDbLine
 10
302180.3367786745
 20
-14840.40825690945
 30
0.0
 11
302185.2321178096
 21
-14839.18447397342
 31
0.0
  0
ARC
  5
A56
330
2
100
AcDbEntity
  8
0
100
AcDbCircle
 10
302180.2270526257
 20
-14840.12904338144
 30
0.0
 40
0.3
100
AcDbArc
 50
270.0
 51
291.4539614813381
  0
ARC
  5
A57
330
2
100
AcDbEntity
  8
0
100
AcDbCircle
 10
302185.5247206064
 20
-14839.92904338144
 30
0.0
 40
0.8
100
AcDbArc
 50
90.0
 51
111.4539614777819
  0
LINE
  5
A58
330
2
100
AcDbEntity
  8
0
100
AcDbLine
 10
302185.5247206064
 20
-14839.12904338144
 30
0.0
 11
302207.8786044021
 21
-14839.12904338144
 31
0.0
  0
HATCH
  5
B42
330
2
100
AcDbEntity
  8
0
100
AcDbHatch
 10
0.0
 20
0.0
 30
0.0
210
0.0
220
0.0
230
1.0
  2
ANSI31
 70
     0
 71
     1
 91
        1
 92
        7
 72
     1
 73
     1
 93
       27
 10
302822.4583938387
 20
-14649.14415164116
 42
0.0
 10
302812.9417388279
 20
-14649.97675106929
 42
0.0
 10
302812.8110052139
 20
-14648.48245902215
 42
0.0
 10
302825.26343894
 20
-14647.39301223781
 42
0.8390996311781863
 10
302825.8642604982
 20
-14640.52559040251
 42
0.0
 10
302809.8880816415
 20
-14636.24478617975
 42
0.0655434628147683
 10
302809.6292625964
 20
-14636.21071200605
 42
0.0
 10
302775.5649955581
 20
-14636.21071200605
 42
-0.6341370759955289
 10
302771.5152021749
 20
-14627.61980291515
 42
0.6341370759955313
 10
302764.9583938404
 20
-14613.71071200612
 42
0.0
 10
302660.3236843513
 20
-14613.71071200612
 42
0.0938849627453837
 10
302660.1408076033
 20
-14613.74535612612
 42
0.0
 10
302649.0074187361
 20
-14618.12058385433
 42
0.0847790203133667
 10
302637.6709934304
 20
-14684.49870964573
 42
0.0933123184927772
 10
302651.3630193112
 20
-14757.22655011707
 42
0.0
 10
302660.1408076033
 20
-14760.67606788618
 42
0.093884962745385
 10
302660.3236843513
 20
-14760.71071200618
 42
0.0
 10
302764.9583938404
 20
-14760.71071200618
 42
0.6341370759955299
 10
302771.5152021749
 20
-14746.80162109715
 42
-0.6341370759955297
 10
302775.5649955581
 20
-14738.21071200625
 42
0.0
 10
302809.6292625964
 20
-14738.21071200625
 42
0.0655434628147979
 10
302809.8880816415
 20
-14738.17663783255
 42
0.0
 10
302825.8642604982
 20
-14733.89583360978
 42
0.8390996311781421
 10
302825.26343894
 20
-14727.02841177449
 42
0.0
 10
302812.8110052139
 20
-14725.93896499015
 42
0.0
 10
302812.9417388279
 20
-14724.44467294301
 42
0.0
 10
302822.4583938404
 20
-14725.27727237128
 42
0.0
 97
        8
330
349
330
34E
330
348
330
30D
330
34A
330
346
330
34B
330
344
 75
     0
 76
     1
 52
0.0
 41
250.0
 77
     0
 78
     1
 53
45.0
 43
0.0
 44
0.0
 45
-22.09708691207961
 46
22.09708691207961
 79
     0
 47
0.3540268023164612
 98
        1
 10
302738.0561814544
 20
-14709.13606055326
1001
GradientColor1ACI
1070
     5
1001
GradientColor2ACI
1070
     2
1001
ACAD
1010
0.0
1020
0.0
1030
0.0
  0
ENDSEC
  0
SECTION
  2
OBJECTS
  0
DICTIONARY
  5
B
330
0
100
AcDbDictionary
281
     1
  3
ACAD_CIP_PREVIOUS_PRODUCT_INFO
350
815
  3
ACAD_COLOR
350
49
  3
ACAD_DETAILVIEWSTYLE
350
810
  3
ACAD_GROUP
350
36
  3
ACAD_LAYOUT
350
18
  3
ACAD_MATERIAL
350
D
  3
ACAD_MLEADERSTYLE
350
21F
  3
ACAD_MLINESTYLE
350
37
  3
ACAD_PLOTSETTINGS
350
38
  3
ACAD_PLOTSTYLENAME
350
A
  3
ACAD_SCALELIST
350
4A
  3
ACAD_SECTIONVIEWSTYLE
350
80E
  3
ACAD_TABLESTYLE
350
4B
  3
ACAD_VISUALSTYLE
350
31
  3
ACDB_RECOMPOSE_DATA
350
B4C
  3
AcDbVariableDictionary
350
20C
  3
AcDsDecomposeData
350
B52
  0
DICTIONARY
  5
21
330
20
100
AcDbDictionary
280
     1
281
     1
  3
ACAD_LAYERFILTERS
360
22
  3
ACAD_LAYERSTATES
360
23
  3
ACLYDICTIONARY
360
24
  0
DICTIONARY
  5
7
330
6
100
AcDbDictionary
280
     1
281
     1
  3
ADSK_XREC_LAYER_RECONCILED
360
8
  0
DICTIONARY
  5
99
330
98
100
AcDbDictionary
280
     1
281
     1
  3
ADSK_XREC_LAYER_RECONCILED
360
9A
  0
DICTIONARY
  5
75
330
74
100
AcDbDictionary
280
     1
281
     1
  3
ADSK_XREC_LAYER_RECONCILED
360
76
  0
DICTIONARY
  5
3
330
2
100
AcDbDictionary
280
     1
281
     1
  3
ACAD_SORTENTS
360
206
  0
DICTIONARY
  5
168
330
167
100
AcDbDictionary
280
     1
281
     1
  3
ACAD_SORTENTS
360
202
  0
DICTIONARY
  5
801
330
30E
100
AcDbDictionary
280
     1
281
     1
  3
ACAD_MTEXT_2008_RT
360
B4B
  0
XRECORD
  5
815
102
{ACAD_REACTORS
330
B
102
}
330
B
100
AcDbXrecord
280
     1
300
ACDLT
300
2018
300
ACDLT_F_S
  0
DICTIONARY
  5
49
102
{ACAD_REACTORS
330
B
102
}
330
B
100
AcDbDictionary
281
     1
  0
DICTIONARY
  5
810
102
{ACAD_REACTORS
330
B
102
}
330
B
100
AcDbDictionary
281
     1
  3
Imperial24
350
811
  0
DICTIONARY
  5
36
102
{ACAD_REACTORS
330
B
102
}
330
B
100
AcDbDictionary
281
     1
  0
DICTIONARY
  5
18
102
{ACAD_REACTORS
330
B
102
}
330
B
100
AcDbDictionary
281
     1
  3
Layout2
350
1D
  3
Model
350
17
  0
DICTIONARY
  5
D
102
{ACAD_REACTORS
330
B
102
}
330
B
100
AcDbDictionary
281
     1
  3
ByBlock
350
41
  3
ByLayer
350
39
  3
Global
350
C
  0
DICTIONARY
  5
21F
102
{ACAD_REACTORS
330
B
102
}
330
B
100
AcDbDictionary
281
     1
  3
Standard
350
220
  0
DICTIONARY
  5
37
102
{ACAD_REACTORS
330
B
102
}
330
B
100
AcDbDictionary
281
     1
  3
Standard
350
4C
  0
DICTIONARY
  5
38
102
{ACAD_REACTORS
330
B
102
}
330
B
100
AcDbDictionary
281
     1
  0
ACDBDICTIONARYWDFLT
  5
A
102
{ACAD_REACTORS
330
B
102
}
330
B
100
AcDbDictionary
281
     1
  3
Normal
350
9
100
AcDbDictionaryWithDefault
340
9
  0
DICTIONARY
  5
4A
102
{ACAD_REACTORS
330
B
102
}
330
B
100
AcDbDictionary
281
     1
  3
*A1
350
51
  3
A0
350
52
  3
A1
350
53
  3
A2
350
54
  3
A3
350
55
  3
A4
350
56
  3
A5
350
57
  3
A6
350
58
  3
A7
350
59
  3
A8
350
5A
  3
A9
350
5B
  3
B0
350
5C
  3
B1
350
5D
  3
B2
350
5E
  3
B3
350
5F
  3
B4
350
60
  3
B5
350
61
  3
B6
350
62
  3
B7
350
63
  3
B8
350
64
  3
B9
350
65
  3
C0
350
66
  3
C1
350
67
  3
C2
350
68
  3
C3
350
69
  3
C4
350
6A
  3
C5
350
6B
  3
C6
350
6C
  3
C7
350
6D
  3
C8
350
6E
  3
C9
350
6F
  3
D0
350
70
  3
D1
350
71
  3
D2
350
72
  0
DICTIONARY
  5
80E
102
{ACAD_REACTORS
330
B
102
}
330
B
100
AcDbDictionary
281
     1
  3
Imperial24
350
80F
  0
DICTIONARY
  5
4B
102
{ACAD_REACTORS
330
B
102
}
330
B
100
AcDbDictionary
281
     1
  3
Standard
350
4D
  0
DICTIONARY
  5
31
102
{ACAD_REACTORS
330
B
102
}
330
B
100
AcDbDictionary
281
     1
  3
2dWireframe
350
30
  3
3D Hidden
350
217
  3
3dWireframe
350
50
  3
Basic
350
216
  3
Brighten
350
21A
  3
ColorChange
350
21E
  3
Conceptual
350
218
  3
Dim
350
219
  3
EdgeColorOff
350
80D
  3
Facepattern
350
21D
  3
Flat
350
212
  3
FlatWithEdges
350
213
  3
Gouraud
350
214
  3
GouraudWithEdges
350
215
  3
Hidden
350
805
  3
JitterOff
350
80B
  3
Linepattern
350
21C
  3
OverhangOff
350
80C
  3
Realistic
350
4F
  3
Shaded
350
80A
  3
Shaded with edges
350
809
  3
Shades of Gray
350
806
  3
Sketchy
350
807
  3
Thicken
350
21B
  3
Wireframe
350
804
  3
X-Ray
350
808
  0
XRECORD
  5
B4C
102
{ACAD_REACTORS
330
B
102
}
330
B
100
AcDbXrecord
280
     1
 90
        1
330
4D
330
30E
  0
DICTIONARY
  5
20C
102
{ACAD_REACTORS
330
B
102
}
330
B
100
AcDbDictionary
281
     1
  3
CANNOSCALE
350
20F
  3
CMLEADERSTYLE
350
20E
  3
CTABLESTYLE
350
20D
  3
CVIEWDETAILSTYLE
350
A83
  3
CVIEWSECTIONSTYLE
350
A84
  3
HPCOLOR
350
B3E
  3
HPTRANSPARENCY
350
B3D
  3
LAYEREVAL
350
A85
  3
LAYERNOTIFY
350
A86
  3
LIGHTINGUNITS
350
210
  0
DICTIONARY
  5
B52
102
{ACAD_REACTORS
330
B
102
}
330
B
100
AcDbDictionary
281
     1
  3
AcDsRecords
350
B54
  3
AcDsSchemas
350
B53
1001
ACAD
1070
     2
  0
DICTIONARY
  5
22
102
{ACAD_REACTORS
330
21
102
}
330
21
100
AcDbDictionary
281
     1
  0
DICTIONARY
  5
23
102
{ACAD_REACTORS
330
21
102
}
330
21
100
AcDbDictionary
281
     1
  0
DICTIONARY
  5
24
102
{ACAD_REACTORS
330
21
102
}
330
21
100
AcDbDictionary
281
     1
1001
ACAD
1000
<All
  0
XRECORD
  5
8
102
{ACAD_REACTORS
330
7
102
}
330
7
100
AcDbXrecord
280
     1
290
     1
  0
XRECORD
  5
9A
102
{ACAD_REACTORS
330
99
102
}
330
99
100
AcDbXrecord
280
     1
290
     1
  0
XRECORD
  5
76
102
{ACAD_REACTORS
330
75
102
}
330
75
100
AcDbXrecord
280
     1
290
     1
  0
SORTENTSTABLE
  5
206
102
{ACAD_REACTORS
330
3
102
}
330
3
100
AcDbSortentsTable
330
2
331
A31
  5
A33
331
7C
  5
7C
331
78
  5
78
331
A2F
  5
A31
331
A2B
  5
A2D
331
B7
  5
B7
331
683
  5
351
331
A27
  5
A29
331
B3
  5
B3
331
A23
  5
A25
331
AF
  5
AF
331
9EC
  5
A03
331
AB
  5
AB
331
9E8
  5
9EA
331
5B6
  5
34C
331
344
  5
267
331
A1E
  5
A20
331
A1A
  5
A1C
331
A6
  5
A6
331
522
  5
34F
331
A57
  5
AAB
331
A16
  5
A18
331
9E7
  5
9E9
331
A2
  5
A2
331
A53
  5
A55
331
A12
  5
A14
331
9E3
  5
9E5
331
9E
  5
9E
331
9DF
  5
9E1
331
A4F
  5
A51
331
A0E
  5
A10
331
A4B
  5
A4D
331
A0A
  5
A0C
331
96
  5
96
331
A47
  5
A49
331
A06
  5
A08
331
92
  5
92
331
A43
  5
A45
331
8E
  5
8E
331
355
  5
353
331
8A
  5
8A
331
351
  5
34D
331
A3E
  5
A40
331
85
  5
85
331
349
  5
30F
331
A3A
  5
A3C
331
81
  5
81
331
A36
  5
A38
331
7D
  5
7D
331
A32
  5
A34
331
79
  5
79
331
A2C
  5
A2E
331
A28
  5
A2A
331
B4
  5
B4
331
A24
  5
A26
331
B0
  5
B0
331
A20
  5
A22
331
AC
  5
AC
331
9ED
  5
A04
331
A8
  5
A8
331
9E9
  5
9EB
331
A1F
  5
A21
331
A58
  5
AAD
331
A1B
  5
A1D
331
A7
  5
A7
331
A54
  5
A56
331
A17
  5
A19
331
9E4
  5
9E6
331
A50
  5
A52
331
A13
  5
A15
331
9E0
  5
9E2
331
9F
  5
9F
331
9B
  5
9B
331
A4C
  5
A4E
331
A0F
  5
A11
331
A48
  5
A4A
331
A0B
  5
A0D
331
B42
  5
265
331
97
  5
97
331
A44
  5
A46
331
35B
  5
495
331
A07
  5
A09
331
93
  5
93
331
A40
  5
A42
331
A03
  5
A05
331
8F
  5
8F
331
F4
  5
F4
331
8B
  5
8B
331
260
  5
260
331
356
  5
355
331
A3F
  5
A41
331
34E
  5
34B
331
A3B
  5
A3D
331
86
  5
86
331
34A
  5
344
331
A37
  5
A39
331
82
  5
82
331
A33
  5
A35
331
7E
  5
7E
331
C7
  5
C7
331
7A
  5
7A
331
77
  5
77
331
A2D
  5
A2F
331
73
  5
73
331
A29
  5
A2B
331
B5
  5
B5
331
A25
  5
A27
331
B1
  5
B1
331
A21
  5
A23
331
AD
  5
AD
331
A9
  5
A9
331
9EA
  5
9EC
331
346
  5
30D
331
A1C
  5
A1E
331
A18
  5
A1A
331
A4
  5
A4
331
A55
  5
A57
331
A14
  5
A16
331
9E5
  5
9E7
331
A0
  5
A0
331
A51
  5
A53
331
A10
  5
A12
331
9E1
  5
9E3
331
9C
  5
9C
331
311
  5
9E0
331
30D
  5
683
331
494
  5
358
331
A4D
  5
A4F
331
A0C
  5
A0E
331
A49
  5
A4B
331
A08
  5
A0A
331
94
  5
94
331
A45
  5
A47
331
A04
  5
A06
331
358
  5
359
331
121
  5
121
331
90
  5
90
331
A41
  5
A43
331
F5
  5
F5
331
8C
  5
8C
331
88
  5
88
331
A3C
  5
A3E
331
353
  5
34E
331
A38
  5
A3A
331
87
  5
87
331
A34
  5
A36
331
34B
  5
349
331
83
  5
83
331
C8
  5
C8
331
A30
  5
A32
331
7F
  5
7F
331
7B
  5
7B
331
A2E
  5
A30
331
A2A
  5
A2C
331
A26
  5
A28
331
B2
  5
B2
331
A22
  5
A24
331
AE
  5
AE
331
AA
  5
AA
331
9EB
  5
9ED
331
A1D
  5
A1F
331
A19
  5
A1B
331
A5
  5
A5
331
A15
  5
A17
331
A1
  5
A1
331
A11
  5
A13
331
A56
  5
A58
331
9E6
  5
9E8
331
9D
  5
9D
331
A52
  5
A54
331
9E2
  5
9E4
331
495
  5
356
331
A0D
  5
A0F
331
30E
  5
9DF
331
A09
  5
A0B
331
A4E
  5
A50
331
95
  5
95
331
359
  5
494
331
A05
  5
A07
331
A4A
  5
A4C
331
91
  5
91
331
A46
  5
A48
331
8D
  5
8D
331
A42
  5
A44
331
89
  5
89
331
354
  5
350
331
A3D
  5
A3F
331
A39
  5
A3B
331
84
  5
84
331
A35
  5
A37
331
348
  5
30E
331
80
  5
80
  0
SORTENTSTABLE
  5
202
102
{ACAD_REACTORS
330
168
102
}
330
168
100
AcDbSortentsTable
330
167
331
191
  5
18B
331
182
  5
17C
331
1C3
  5
1BE
331
189
  5
183
331
17B
  5
1A7
331
1A5
  5
19F
331
1CE
  5
1C9
331
19C
  5
196
331
183
  5
17D
331
1C0
  5
1D0
331
196
  5
190
331
178
  5
177
331
19D
  5
197
331
1AA
  5
1A4
331
1CF
  5
1CA
331
18E
  5
188
331
180
  5
171
331
172
  5
176
331
1C1
  5
1D1
331
197
  5
191
331
179
  5
178
331
1CC
  5
1C7
331
18F
  5
189
331
1BE
  5
1C6
331
1AB
  5
1A5
331
173
  5
17A
331
181
  5
17B
331
1A8
  5
1A2
331
1C6
  5
1BF
331
18C
  5
186
331
17E
  5
16D
331
1CD
  5
1C8
331
1BF
  5
1CF
331
194
  5
18E
331
170
  5
1AE
331
1A2
  5
19C
331
1C7
  5
1C0
331
1A9
  5
1A3
331
18D
  5
187
331
17F
  5
16F
331
1BC
  5
1BD
331
186
  5
180
331
195
  5
18F
331
171
  5
170
331
187
  5
181
331
19A
  5
194
331
1C4
  5
1CD
331
17C
  5
1A8
331
1AE
  5
1AB
331
1BD
  5
1C1
331
1A3
  5
19D
331
1A0
  5
19A
331
184
  5
17E
331
176
  5
174
331
19B
  5
195
331
1C5
  5
1CE
331
17D
  5
1A9
331
1A1
  5
19B
331
177
  5
175
331
185
  5
17F
331
198
  5
192
331
1CA
  5
1C4
331
16F
  5
1AD
331
1AC
  5
1A6
331
192
  5
18C
331
174
  5
172
331
18A
  5
184
331
199
  5
193
331
1A6
  5
1A0
331
1CB
  5
1C5
331
1AD
  5
1AA
331
193
  5
18D
331
1D0
  5
1CB
331
175
  5
173
331
1A7
  5
1A1
331
18B
  5
185
331
1C8
  5
1C2
331
16D
  5
1AC
331
19E
  5
198
331
190
  5
18A
331
1C2
  5
1BB
331
1D1
  5
1CC
331
188
  5
182
331
17A
  5
179
331
1C9
  5
1C3
331
1A4
  5
19E
331
1BB
  5
1BC
331
19F
  5
199
  0
XRECORD
  5
B4B
102
{ACAD_REACTORS
330
801
102
}
330
801
100
AcDbXrecord
280
     1
 40
59087.0
  1
\pxqc;{\LDetail\P}1/2.5
  0
ACDBDETAILVIEWSTYLE
  5
811
102
{ACAD_XDICTIONARY
360
B57
102
}
102
{ACAD_REACTORS
330
810
102
}
330
810
100
AcDbModelDocViewStyle
 70
     0
  3
Imperial24
290
     0
100
AcDbDetailViewStyle
 70
     0
 71
     0
 90
        3
 71
     1
340
27
 62
   256
 40
0.24
340
0
 62
   256
 40
0.24
300

 40
0.36
280
     3
 71
     2
340
15
 90
       25
 62
   256
 71
     3
340
27
 62
   256
 40
0.24
 90
        1
 40
0.75
 90
        1
300
%<\AcVar ViewType \f "%tc1">% %<\AcVar ViewDetailId>%\PSCALE %<\AcVar ViewScale \f "%sn">%
 71
     4
340
15
 90
       25
 62
   256
340
15
 90
       25
 62
   256
280
     0
  0
LAYOUT
  5
1D
102
{ACAD_XDICTIONARY
360
1E
102
}
102
{ACAD_REACTORS
330
18
102
}
330
18
100
AcDbPlotSettings
  1

  2
HP LaserJet 1100
  4
A4
  6

 40
6.805083274841308
 41
5.535083293914794
 42
6.974411010742187
 43
7.14373779296875
 44
209.9733276367187
 45
296.9259948730469
 46
0.0
 47
0.0
 48
0.0
 49
0.0
140
0.0
141
0.0
142
1.0
143
1.0
 70
   688
 72
     1
 73
     1
 74
     5
  7
Bulcke-Alles-Dun-Kleur.ctb
 75
    16
147
1.0
 76
     0
 77
     2
 78
   300
148
0.0
149
0.0
100
AcDbLayout
  1
Layout2
 70
     1
 71
     1
 10
-7.14373779296875
 20
-6.805083274841308
 11
289.7822570800781
 21
203.1682443618775
 12
0.0
 22
0.0
 32
0.0
 14
28.42471737861632
 24
78.83854968366364
 34
0.0
 15
255.822456407547
 25
115.7661541700303
 35
0.0
146
0.0
 13
0.0
 23
0.0
 33
0.0
 16
1.0
 26
0.0
 36
0.0
 17
0.0
 27
1.0
 37
0.0
 76
     0
330
1A
  0
LAYOUT
  5
17
102
{ACAD_REACTORS
330
18
102
}
330
18
100
AcDbPlotSettings
  1

  2
DWG To PDF.pc3
  4
ISO_full_bleed_A4_(297.00_x_210.00_MM)
  6

 40
0.7937499880790711
 41
0.7937499880790711
 42
0.79376220703125
 43
0.7937469482421875
 44
297.0
 45
210.0
 46
10.20624390244484
 47
5.564945776088634
 48
301741.6187341547
 49
-15376.38604645362
140
303116.6187341547
141
-14389.97298889612
142
1.0
143
5.0
 70
 11780
 72
     1
 73
     0
 74
     4
  7
Bulcke-Alles-Dun-Kleur.ctb
 75
     0
147
0.2
 76
     0
 77
     2
 78
   300
148
-301741.6187341547
149
15376.38604645362
100
AcDbLayout
  1
Model
 70
     1
 71
     0
 10
0.0
 20
0.0
 11
12.0
 21
9.0
 12
0.0
 22
0.0
 32
0.0
 14
294099.1361264219
 24
-20945.28390634232
 34
0.0
 15
316833.4510014901
 25
4960.105191481706
 35
0.0
146
0.0
 13
0.0
 23
0.0
 33
0.0
 16
1.0
 26
0.0
 36
0.0
 17
0.0
 27
1.0
 37
0.0
 76
     0
330
2
331
2F
1001
ACAD_PSEXT
1000
DWG To PDF.pc3
1000
DWG To PDF
1000
File
1000

1070
     0
  0
MATERIAL
  5
41
102
{ACAD_XDICTIONARY
360
42
102
}
102
{ACAD_REACTORS
330
D
102
}
330
D
100
AcDbMaterial
  1
ByBlock
 72
     0
 43
0.0008202099737533
 43
0.0
 43
0.0
 43
0.0
 43
0.0
 43
0.0008202099737533
 43
0.0
 43
0.0
 43
0.0
 43
0.0
 43
1.0
 43
0.0
 43
0.0
 43
0.0
 43
0.0
 43
1.0
 77
     0
 47
0.0008202099737533
 47
0.0
 47
0.0
 47
0.0
 47
0.0
 47
0.0008202099737533
 47
0.0
 47
0.0
 47
0.0
 47
0.0
 47
1.0
 47
0.0
 47
0.0
 47
0.0
 47
0.0
 47
1.0
171
     0
 49
0.0008202099737533
 49
0.0
 49
0.0
 49
0.0
 49
0.0
 49
0.0008202099737533
 49
0.0
 49
0.0
 49
0.0
 49
0.0
 49
1.0
 49
0.0
 49
0.0
 49
0.0
 49
0.0
 49
1.0
175
     0
142
0.0008202099737533
142
0.0
142
0.0
142
0.0
142
0.0
142
0.0008202099737533
142
0.0
142
0.0
142
0.0
142
0.0
142
1.0
142
0.0
142
0.0
142
0.0
142
0.0
142
1.0
179
     0
144
0.0008202099737533
144
0.0
144
0.0
144
0.0
144
0.0
144
0.0008202099737533
144
0.0
144
0.0
144
0.0
144
0.0
144
1.0
144
0.0
144
0.0
144
0.0
144
0.0
144
1.0
147
0.0008202099737533
147
0.0
147
0.0
147
0.0
147
0.0
147
0.0008202099737533
147
0.0
147
0.0
147
0.0
147
0.0
147
1.0
147
0.0
147
0.0
147
0.0
147
0.0
147
1.0
  0
MATERIAL
  5
39
102
{ACAD_XDICTIONARY
360
3A
102
}
102
{ACAD_REACTORS
330
D
102
}
330
D
100
AcDbMaterial
  1
ByLayer
 72
     0
 43
0.0008202099737533
 43
0.0
 43
0.0
 43
0.0
 43
0.0
 43
0.0008202099737533
 43
0.0
 43
0.0
 43
0.0
 43
0.0
 43
1.0
 43
0.0
 43
0.0
 43
0.0
 43
0.0
 43
1.0
 77
     0
 47
0.0008202099737533
 47
0.0
 47
0.0
 47
0.0
 47
0.0
 47
0.0008202099737533
 47
0.0
 47
0.0
 47
0.0
 47
0.0
 47
1.0
 47
0.0
 47
0.0
 47
0.0
 47
0.0
 47
1.0
171
     0
 49
0.0008202099737533
 49
0.0
 49
0.0
 49
0.0
 49
0.0
 49
0.0008202099737533
 49
0.0
 49
0.0
 49
0.0
 49
0.0
 49
1.0
 49
0.0
 49
0.0
 49
0.0
 49
0.0
 49
1.0
175
     0
142
0.0008202099737533
142
0.0
142
0.0
142
0.0
142
0.0
142
0.0008202099737533
142
0.0
142
0.0
142
0.0
142
0.0
142
1.0
142
0.0
142
0.0
142
0.0
142
0.0
142
1.0
179
     0
144
0.0008202099737533
144
0.0
144
0.0
144
0.0
144
0.0
144
0.0008202099737533
144
0.0
144
0.0
144
0.0
144
0.0
144
1.0
144
0.0
144
0.0
144
0.0
144
0.0
144
1.0
147
0.0008202099737533
147
0.0
147
0.0
147
0.0
147
0.0
147
0.0008202099737533
147
0.0
147
0.0
147
0.0
147
0.0
147
1.0
147
0.0
147
0.0
147
0.0
147
0.0
147
1.0
  0
MATERIAL
  5
C
102
{ACAD_XDICTIONARY
360
E
102
}
102
{ACAD_REACTORS
330
D
102
}
330
D
100
AcDbMaterial
  1
Global
 72
     0
 43
0.0008202099737533
 43
0.0
 43
0.0
 43
0.0
 43
0.0
 43
0.0008202099737533
 43
0.0
 43
0.0
 43
0.0
 43
0.0
 43
1.0
 43
0.0
 43
0.0
 43
0.0
 43
0.0
 43
1.0
 77
     0
 47
0.0008202099737533
 47
0.0
 47
0.0
 47
0.0
 47
0.0
 47
0.0008202099737533
 47
0.0
 47
0.0
 47
0.0
 47
0.0
 47
1.0
 47
0.0
 47
0.0
 47
0.0
 47
0.0
 47
1.0
171
     0
 49
0.0008202099737533
 49
0.0
 49
0.0
 49
0.0
 49
0.0
 49
0.0008202099737533
 49
0.0
 49
0.0
 49
0.0
 49
0.0
 49
1.0
 49
0.0
 49
0.0
 49
0.0
 49
0.0
 49
1.0
175
     0
142
0.0008202099737533
142
0.0
142
0.0
142
0.0
142
0.0
142
0.0008202099737533
142
0.0
142
0.0
142
0.0
142
0.0
142
1.0
142
0.0
142
0.0
142
0.0
142
0.0
142
1.0
179
     0
144
0.0008202099737533
144
0.0
144
0.0
144
0.0
144
0.0
144
0.0008202099737533
144
0.0
144
0.0
144
0.0
144
0.0
144
1.0
144
0.0
144
0.0
144
0.0
144
0.0
144
1.0
147
0.0008202099737533
147
0.0
147
0.0
147
0.0
147
0.0
147
0.0008202099737533
147
0.0
147
0.0
147
0.0
147
0.0
147
1.0
147
0.0
147
0.0
147
0.0
147
0.0
147
1.0
  0
MLEADERSTYLE
  5
220
102
{ACAD_REACTORS
330
21F
102
}
330
21F
100
AcDbMLeaderStyle
179
     2
170
     2
171
     1
172
     0
 90
        2
 40
0.0
 41
0.0
173
     1
 91
-1056964608
340
2A
 92
       -2
290
     1
 42
0.09
291
     1
 43
0.36
  3
Standard
 44
0.18
300

342
27
174
     1
178
     6
175
     1
176
     0
 93
-1056964608
 45
0.18
292
     0
297
     0
 46
0.18
 94
-1056964608
 47
1.0
 49
1.0
140
1.0
293
     1
141
0.0
294
     1
177
     0
142
1.0
295
     0
296
     0
143
0.125
271
     0
272
     9
273
     9
298
     0
  0
MLINESTYLE
  5
4C
102
{ACAD_REACTORS
330
37
102
}
330
37
100
AcDbMlineStyle
  2
STANDARD
 70
     0
  3

 62
   256
 51
90.0
 52
90.0
 71
     2
 49
0.5
 62
   256
  6
BYLAYER
 49
-0.5
 62
   256
  6
BYLAYER
  0
ACDBPLACEHOLDER
  5
9
102
{ACAD_REACTORS
330
A
102
}
330
A
  0
SCALE
  5
51
102
{ACAD_REACTORS
330
4A
102
}
330
4A
100
AcDbScale
 70
     0
300
1:15
140
1.0
141
15.0
290
     0
  0
SCALE
  5
52
102
{ACAD_REACTORS
330
4A
102
}
330
4A
100
AcDbScale
 70
     0
300
1:1
140
1.0
141
1.0
290
     1
  0
SCALE
  5
53
102
{ACAD_REACTORS
330
4A
102
}
330
4A
100
AcDbScale
 70
     0
300
1:2
140
1.0
141
2.0
290
     0
  0
SCALE
  5
54
102
{ACAD_REACTORS
330
4A
102
}
330
4A
100
AcDbScale
 70
     0
300
1:4
140
1.0
141
4.0
290
     0
  0
SCALE
  5
55
102
{ACAD_REACTORS
330
4A
102
}
330
4A
100
AcDbScale
 70
     0
300
1:5
140
1.0
141
5.0
290
     0
  0
SCALE
  5
56
102
{ACAD_REACTORS
330
4A
102
}
330
4A
100
AcDbScale
 70
     0
300
1:8
140
1.0
141
8.0
290
     0
  0
SCALE
  5
57
102
{ACAD_REACTORS
330
4A
102
}
330
4A
100
AcDbScale
 70
     0
300
1:10
140
1.0
141
10.0
290
     0
  0
SCALE
  5
58
102
{ACAD_REACTORS
330
4A
102
}
330
4A
100
AcDbScale
 70
     0
300
1:16
140
1.0
141
16.0
290
     0
  0
SCALE
  5
59
102
{ACAD_REACTORS
330
4A
102
}
330
4A
100
AcDbScale
 70
     0
300
1:20
140
1.0
141
20.0
290
     0
  0
SCALE
  5
5A
102
{ACAD_REACTORS
330
4A
102
}
330
4A
100
AcDbScale
 70
     0
300
1:30
140
1.0
141
30.0
290
     0
  0
SCALE
  5
5B
102
{ACAD_REACTORS
330
4A
102
}
330
4A
100
AcDbScale
 70
     0
300
1:40
140
1.0
141
40.0
290
     0
  0
SCALE
  5
5C
102
{ACAD_REACTORS
330
4A
102
}
330
4A
100
AcDbScale
 70
     0
300
1:50
140
1.0
141
50.0
290
     0
  0
SCALE
  5
5D
102
{ACAD_REACTORS
330
4A
102
}
330
4A
100
AcDbScale
 70
     0
300
1:100
140
1.0
141
100.0
290
     0
  0
SCALE
  5
5E
102
{ACAD_REACTORS
330
4A
102
}
330
4A
100
AcDbScale
 70
     0
300
2:1
140
2.0
141
1.0
290
     0
  0
SCALE
  5
5F
102
{ACAD_REACTORS
330
4A
102
}
330
4A
100
AcDbScale
 70
     0
300
4:1
140
4.0
141
1.0
290
     0
  0
SCALE
  5
60
102
{ACAD_REACTORS
330
4A
102
}
330
4A
100
AcDbScale
 70
     0
300
8:1
140
8.0
141
1.0
290
     0
  0
SCALE
  5
61
102
{ACAD_REACTORS
330
4A
102
}
330
4A
100
AcDbScale
 70
     0
300
10:1
140
10.0
141
1.0
290
     0
  0
SCALE
  5
62
102
{ACAD_REACTORS
330
4A
102
}
330
4A
100
AcDbScale
 70
     0
300
100:1
140
100.0
141
1.0
290
     0
  0
SCALE
  5
63
102
{ACAD_REACTORS
330
4A
102
}
330
4A
100
AcDbScale
 70
     0
300
1/128" = 1'-0"
140
0.0078125
141
12.0
290
     0
  0
SCALE
  5
64
102
{ACAD_REACTORS
330
4A
102
}
330
4A
100
AcDbScale
 70
     0
300
1/64" = 1'-0"
140
0.015625
141
12.0
290
     0
  0
SCALE
  5
65
102
{ACAD_REACTORS
330
4A
102
}
330
4A
100
AcDbScale
 70
     0
300
1/32" = 1'-0"
140
0.03125
141
12.0
290
     0
  0
SCALE
  5
66
102
{ACAD_REACTORS
330
4A
102
}
330
4A
100
AcDbScale
 70
     0
300
1/16" = 1'-0"
140
0.0625
141
12.0
290
     0
  0
SCALE
  5
67
102
{ACAD_REACTORS
330
4A
102
}
330
4A
100
AcDbScale
 70
     0
300
3/32" = 1'-0"
140
0.09375
141
12.0
290
     0
  0
SCALE
  5
68
102
{ACAD_REACTORS
330
4A
102
}
330
4A
100
AcDbScale
 70
     0
300
1/8" = 1'-0"
140
0.125
141
12.0
290
     0
  0
SCALE
  5
69
102
{ACAD_REACTORS
330
4A
102
}
330
4A
100
AcDbScale
 70
     0
300
3/16" = 1'-0"
140
0.1875
141
12.0
290
     0
  0
SCALE
  5
6A
102
{ACAD_REACTORS
330
4A
102
}
330
4A
100
AcDbScale
 70
     0
300
1/4" = 1'-0"
140
0.25
141
12.0
290
     0
  0
SCALE
  5
6B
102
{ACAD_REACTORS
330
4A
102
}
330
4A
100
AcDbScale
 70
     0
300
3/8" = 1'-0"
140
0.375
141
12.0
290
     0
  0
SCALE
  5
6C
102
{ACAD_REACTORS
330
4A
102
}
330
4A
100
AcDbScale
 70
     0
300
1/2" = 1'-0"
140
0.5
141
12.0
290
     0
  0
SCALE
  5
6D
102
{ACAD_REACTORS
330
4A
102
}
330
4A
100
AcDbScale
 70
     0
300
3/4" = 1'-0"
140
0.75
141
12.0
290
     0
  0
SCALE
  5
6E
102
{ACAD_REACTORS
330
4A
102
}
330
4A
100
AcDbScale
 70
     0
300
1" = 1'-0"
140
1.0
141
12.0
290
     0
  0
SCALE
  5
6F
102
{ACAD_REACTORS
330
4A
102
}
330
4A
100
AcDbScale
 70
     0
300
1-1/2" = 1'-0"
140
1.5
141
12.0
290
     0
  0
SCALE
  5
70
102
{ACAD_REACTORS
330
4A
102
}
330
4A
100
AcDbScale
 70
     0
300
3" = 1'-0"
140
3.0
141
12.0
290
     0
  0
SCALE
  5
71
102
{ACAD_REACTORS
330
4A
102
}
330
4A
100
AcDbScale
 70
     0
300
6" = 1'-0"
140
6.0
141
12.0
290
     0
  0
SCALE
  5
72
102
{ACAD_REACTORS
330
4A
102
}
330
4A
100
AcDbScale
 70
     0
300
1'-0" = 1'-0"
140
12.0
141
12.0
290
     0
  0
ACDBSECTIONVIEWSTYLE
  5
80F
102
{ACAD_XDICTIONARY
360
B55
102
}
102
{ACAD_REACTORS
330
80E
102
}
330
80E
100
AcDbModelDocViewStyle
 70
     0
  3
Imperial24
290
     0
100
AcDbSectionViewStyle
 70
     0
 71
     0
 90
       78
 71
     1
340
27
 62
   256
 40
0.24
340
0
340
0
 62
   256
 40
0.24
300
I, O, Q, S, X, Z
 40
0.48
 90
        3
 40
0.18
 90
        1
 71
     2
340
15
 90
       25
 62
   256
340
15
 90
       50
 62
   256
 40
0.24
 40
0.0
 40
0.24
 71
     3
340
27
 62
   256
 40
0.24
 90
        1
 40
0.75
 90
        1
300
%<\AcVar ViewType \f "%tc1">% %<\AcVar ViewSectionStartId>%-%<\AcVar ViewSectionEndId>%\PSCALE %<\AcVar ViewScale \f "%sn">%
 71
     4
 62
   256
 62
   257
300
ANSI31
 40
1.0
 90
        0
290
     0
290
     0
 90
        6
 40
0.0
 40
1.570796326794896
 40
0.2617993877991494
 40
1.308996938995747
 40
-0.2617993877991494
 40
1.832595714594046
  0
TABLESTYLE
  5
4D
102
{ACAD_XDICTIONARY
360
4E
102
}
102
{ACAD_REACTORS
330
4B
102
}
330
4B
100
AcDbTableStyle
280
     0
  3
Standard
 70
     0
 71
     0
 40
0.06
 41
0.06
280
     0
281
     0
  7
Standard
140
0.18
170
     2
 62
     0
 63
     7
283
     0
 90
      512
 91
        0
  1

274
    -2
284
     1
 64
     0
275
    -2
285
     1
 65
     0
276
    -2
286
     1
 66
     0
277
    -2
287
     1
 67
     0
278
    -2
288
     1
 68
     0
279
    -2
289
     1
 69
     0
  7
Standard
140
0.25
170
     5
 62
     0
 63
     7
283
     0
 90
      512
 91
        0
  1

274
    -2
284
     1
 64
     0
275
    -2
285
     1
 65
     0
276
    -2
286
     1
 66
     0
277
    -2
287
     1
 67
     0
278
    -2
288
     1
 68
     0
279
    -2
289
     1
 69
     0
  7
Standard
140
0.18
170
     5
 62
     0
 63
     7
283
     0
 90
      512
 91
        0
  1

274
    -2
284
     1
 64
     0
275
    -2
285
     1
 65
     0
276
    -2
286
     1
 66
     0
277
    -2
287
     1
 67
     0
278
    -2
288
     1
 68
     0
279
    -2
289
     1
 69
     0
  0
VISUALSTYLE
  5
30
102
{ACAD_REACTORS
330
31
102
}
330
31
100
AcDbVisualStyle
  2
2dWireframe
 70
     4
177
     3
291
     0
 70
    58
 90
        0
176
     1
 90
        2
176
     1
 90
        0
176
     1
 90
        0
176
     1
 40
0.6
176
     1
 40
30.0
176
     1
 62
     7
420
 16777215
176
     1
 90
        1
176
     1
 90
        4
176
     1
 62
     7
176
     1
 62
   257
176
     1
 90
        1
176
     1
 90
        1
176
     1
 40
1.0
176
     1
 90
        0
176
     1
 62
   257
176
     1
 40
1.0
176
     1
 90
        1
176
     1
 90
        6
176
     1
 90
        2
176
     1
 62
     7
176
     1
 90
        5
176
     1
 90
        0
176
     1
 90
        0
176
     1
290
     0
176
     1
 90
        1
176
     1
 40
0.0
176
     1
 90
        0
176
     1
290
     1
176
     1
290
     1
176
     1
290
     0
176
     1
290
     0
176
     1
290
     0
176
     1
290
     0
176
     1
290
     0
176
     1
290
     0
176
     1
290
     0
176
     1
 90
       50
176
     1
 40
0.0
176
     1
 40
1.0
176
     1
 90
        0
176
     1
 62
    18
420
        0
176
     1
 90
       50
176
     1
 90
        3
176
     1
 62
     5
420
      255
176
     1
290
     0
176
     1
 90
       50
176
     1
 90
       50
176
     1
 90
       50
176
     1
290
     0
176
     1
 90
       50
176
     1
 62
   256
176
     0
 40
1.0
176
     0
 90
        2
176
     1
  1
strokes_ogs.tif
176
     1
290
     0
176
     1
 40
1.0
176
     1
 40
1.0
176
     1
1001
ACAD
1000
AcDbSavedByObjectVersion
1070
     0
  0
VISUALSTYLE
  5
217
102
{ACAD_REACTORS
330
31
102
}
330
31
100
AcDbVisualStyle
  2
3D Hidden
 70
     6
177
     3
291
     0
 70
    58
 90
        1
176
     1
 90
        2
176
     1
 90
        2
176
     1
 90
        0
176
     1
 40
0.6
176
     1
 40
30.0
176
     1
 62
     7
420
 16777215
176
     1
 90
        2
176
     1
 90
        2
176
     1
 62
     7
176
     1
 62
   257
176
     1
 90
        2
176
     1
 90
        1
176
     1
 40
40.0
176
     1
 90
        0
176
     1
 62
   257
176
     1
 40
1.0
176
     1
 90
        1
176
     1
 90
        6
176
     1
 90
        2
176
     1
 62
     7
176
     1
 90
        3
176
     1
 90
        0
176
     1
 90
        0
176
     1
290
     0
176
     1
 90
        1
176
     1
 40
0.0
176
     1
 90
        0
176
     1
290
     0
176
     1
290
     1
176
     1
290
     1
176
     1
290
     0
176
     1
290
     0
176
     1
290
     0
176
     1
290
     0
176
     1
290
     0
176
     1
290
     0
176
     1
 90
       50
176
     1
 40
0.0
176
     1
 40
1.0
176
     1
 90
        0
176
     1
 62
    18
420
        0
176
     1
 90
       50
176
     1
 90
        3
176
     1
 62
     5
420
      255
176
     1
290
     0
176
     1
 90
       50
176
     1
 90
       50
176
     1
 90
       50
176
     1
290
     0
176
     1
 90
       50
176
     1
 62
   256
176
     0
 40
1.0
176
     0
 90
        2
176
     1
  1
strokes_ogs.tif
176
     1
290
     0
176
     1
 40
1.0
176
     1
 40
1.0
176
     1
1001
ACAD
1000
AcDbSavedByObjectVersion
1070
     0
  0
VISUALSTYLE
  5
50
102
{ACAD_REACTORS
330
31
102
}
330
31
100
AcDbVisualStyle
  2
3dWireframe
 70
     5
177
     3
291
     0
 70
    58
 90
        0
176
     1
 90
        2
176
     1
 90
        0
176
     1
 90
        0
176
     1
 40
0.6
176
     1
 40
30.0
176
     1
 62
     7
420
 16777215
176
     1
 90
        1
176
     1
 90
        4
176
     1
 62
     7
176
     1
 62
   257
176
     1
 90
        1
176
     1
 90
        1
176
     1
 40
1.0
176
     1
 90
        0
176
     1
 62
   257
176
     1
 40
1.0
176
     1
 90
        1
176
     1
 90
        6
176
     1
 90
        2
176
     1
 62
     7
176
     1
 90
        5
176
     1
 90
        0
176
     1
 90
        0
176
     1
290
     0
176
     1
 90
        1
176
     1
 40
0.0
176
     1
 90
        0
176
     1
290
     0
176
     1
290
     1
176
     1
290
     1
176
     1
290
     0
176
     1
290
     0
176
     1
290
     0
176
     1
290
     0
176
     1
290
     0
176
     1
290
     0
176
     1
 90
       50
176
     1
 40
0.0
176
     1
 40
1.0
176
     1
 90
        0
176
     1
 62
    18
420
        0
176
     1
 90
       50
176
     1
 90
        3
176
     1
 62
     5
420
      255
176
     1
290
     0
176
     1
 90
       50
176
     1
 90
       50
176
     1
 90
       50
176
     1
290
     0
176
     1
 90
       50
176
     1
 62
   256
176
     0
 40
1.0
176
     0
 90
        2
176
     1
  1
strokes_ogs.tif
176
     1
290
     0
176
     1
 40
1.0
176
     1
 40
1.0
176
     1
1001
ACAD
1000
AcDbSavedByObjectVersion
1070
     0
  0
VISUALSTYLE
  5
216
102
{ACAD_REACTORS
330
31
102
}
330
31
100
AcDbVisualStyle
  2
Basic
 70
     7
177
     3
291
     1
 70
    58
 90
        1
176
     1
 90
        0
176
     1
 90
        1
176
     1
 90
        0
176
     1
 40
0.6
176
     1
 40
30.0
176
     1
 62
     7
420
 16777215
176
     1
 90
        0
176
     1
 90
        4
176
     1
 62
     7
176
     1
 62
   257
176
     1
 90
        1
176
     1
 90
        1
176
     1
 40
1.0
176
     1
 90
        8
176
     1
 62
     7
176
     1
 40
1.0
176
     1
 90
        1
176
     1
 90
        6
176
     1
 90
        2
176
     1
 62
     7
176
     1
 90
        5
176
     1
 90
        0
176
     1
 90
        0
176
     1
290
     0
176
     1
 90
        1
176
     1
 40
0.0
176
     1
 90
        0
176
     1
290
     0
176
     1
290
     1
176
     1
290
     1
176
     1
290
     0
176
     1
290
     0
176
     1
290
     0
176
     1
290
     0
176
     1
290
     0
176
     1
290
     0
176
     1
 90
       50
176
     1
 40
0.0
176
     1
 40
1.0
176
     1
 90
        0
176
     1
 62
    18
420
        0
176
     1
 90
       50
176
     1
 90
        3
176
     1
 62
     5
420
      255
176
     1
290
     0
176
     1
 90
       50
176
     1
 90
       50
176
     1
 90
       50
176
     1
290
     0
176
     1
 90
       50
176
     1
 62
   256
176
     0
 40
1.0
176
     0
 90
        2
176
     1
  1
strokes_ogs.tif
176
     1
290
     0
176
     1
 40
1.0
176
     1
 40
1.0
176
     1
1001
ACAD
1000
AcDbSavedByObjectVersion
1070
     0
  0
VISUALSTYLE
  5
21A
102
{ACAD_REACTORS
330
31
102
}
330
31
100
AcDbVisualStyle
  2
Brighten
 70
    12
177
     3
291
     1
 70
    58
 90
        2
176
     1
 90
        2
176
     1
 90
        0
176
     1
 90
        0
176
     1
 40
0.6
176
     1
 40
30.0
176
     1
 62
     7
420
 16777215
176
     1
 90
        1
176
     1
 90
        4
176
     1
 62
     7
176
     1
 62
   257
176
     1
 90
        1
176
     1
 90
        1
176
     1
 40
1.0
176
     1
 90
        8
176
     1
 62
     7
176
     1
 40
1.0
176
     1
 90
        1
176
     1
 90
        6
176
     1
 90
        2
176
     1
 62
     7
176
     1
 90
        5
176
     1
 90
        0
176
     1
 90
        0
176
     1
290
     0
176
     1
 90
        1
176
     1
 40
50.0
176
     1
 90
        0
176
     1
290
     0
176
     1
290
     1
176
     1
290
     1
176
     1
290
     0
176
     1
290
     0
176
     1
290
     0
176
     1
290
     0
176
     1
290
     0
176
     1
290
     0
176
     1
 90
       50
176
     1
 40
0.0
176
     1
 40
1.0
176
     1
 90
        0
176
     1
 62
    18
420
        0
176
     1
 90
       50
176
     1
 90
        3
176
     1
 62
     5
420
      255
176
     1
290
     0
176
     1
 90
       50
176
     1
 90
       50
176
     1
 90
       50
176
     1
290
     0
176
     1
 90
       50
176
     1
 62
   256
176
     0
 40
1.0
176
     0
 90
        2
176
     1
  1
strokes_ogs.tif
176
     1
290
     0
176
     1
 40
1.0
176
     1
 40
1.0
176
     1
1001
ACAD
1000
AcDbSavedByObjectVersion
1070
     0
  0
VISUALSTYLE
  5
21E
102
{ACAD_REACTORS
330
31
102
}
330
31
100
AcDbVisualStyle
  2
ColorChange
 70
    16
177
     3
291
     1
 70
    58
 90
        2
176
     1
 90
        2
176
     1
 90
        3
176
     1
 90
        0
176
     1
 40
0.6
176
     1
 40
30.0
176
     1
 62
     8
420
  8421504
176
     1
 90
        1
176
     1
 90
        4
176
     1
 62
     7
176
     1
 62
   257
176
     1
 90
        1
176
     1
 90
        1
176
     1
 40
1.0
176
     1
 90
        8
176
     1
 62
     8
420
  8421504
176
     1
 40
1.0
176
     1
 90
        1
176
     1
 90
        6
176
     1
 90
        2
176
     1
 62
     7
176
     1
 90
        5
176
     1
 90
        0
176
     1
 90
        0
176
     1
290
     0
176
     1
 90
        1
176
     1
 40
0.0
176
     1
 90
        0
176
     1
290
     0
176
     1
290
     1
176
     1
290
     1
176
     1
290
     0
176
     1
290
     0
176
     1
290
     0
176
     1
290
     0
176
     1
290
     0
176
     1
290
     0
176
     1
 90
       50
176
     1
 40
0.0
176
     1
 40
1.0
176
     1
 90
        0
176
     1
 62
    18
420
        0
176
     1
 90
       50
176
     1
 90
        3
176
     1
 62
     5
420
      255
176
     1
290
     0
176
     1
 90
       50
176
     1
 90
       50
176
     1
 90
       50
176
     1
290
     0
176
     1
 90
       50
176
     1
 62
   256
176
     0
 40
1.0
176
     0
 90
        2
176
     1
  1
strokes_ogs.tif
176
     1
290
     0
176
     1
 40
1.0
176
     1
 40
1.0
176
     1
1001
ACAD
1000
AcDbSavedByObjectVersion
1070
     0
  0
VISUALSTYLE
  5
218
102
{ACAD_REACTORS
330
31
102
}
330
31
100
AcDbVisualStyle
  2
Conceptual
 70
     9
177
     3
291
     0
 70
    58
 90
        3
176
     1
 90
        2
176
     1
 90
        0
176
     1
 90
        0
176
     1
 40
0.6
176
     1
 40
30.0
176
     1
 62
     7
420
 16777215
176
     1
 90
        2
176
     1
 90
        2
176
     1
 62
     7
176
     1
 62
   257
176
     1
 90
        1
176
     1
 90
        1
176
     1
 40
40.0
176
     1
 90
        8
176
     1
 62
     7
176
     1
 40
1.0
176
     1
 90
        1
176
     1
 90
        6
176
     1
 90
        2
176
     1
 62
     7
176
     1
 90
        3
176
     1
 90
        0
176
     1
 90
        0
176
     1
290
     0
176
     1
 90
        1
176
     1
 40
0.0
176
     1
 90
        0
176
     1
290
     0
176
     1
290
     1
176
     1
290
     1
176
     1
290
     0
176
     1
290
     0
176
     1
290
     0
176
     1
290
     0
176
     1
290
     0
176
     1
290
     0
176
     1
 90
       50
176
     1
 40
0.0
176
     1
 40
1.0
176
     1
 90
        0
176
     1
 62
    18
420
        0
176
     1
 90
       50
176
     1
 90
        3
176
     1
 62
     5
420
      255
176
     1
290
     0
176
     1
 90
       50
176
     1
 90
       50
176
     1
 90
       50
176
     1
290
     0
176
     1
 90
       50
176
     1
 62
   256
176
     0
 40
1.0
176
     0
 90
        2
176
     1
  1
strokes_ogs.tif
176
     1
290
     0
176
     1
 40
1.0
176
     1
 40
1.0
176
     1
1001
ACAD
1000
AcDbSavedByObjectVersion
1070
     0
  0
VISUALSTYLE
  5
219
102
{ACAD_REACTORS
330
31
102
}
330
31
100
AcDbVisualStyle
  2
Dim
 70
    11
177
     3
291
     1
 70
    58
 90
        2
176
     1
 90
        2
176
     1
 90
        0
176
     1
 90
        0
176
     1
 40
0.6
176
     1
 40
30.0
176
     1
 62
     7
420
 16777215
176
     1
 90
        1
176
     1
 90
        4
176
     1
 62
     7
176
     1
 62
   257
176
     1
 90
        1
176
     1
 90
        1
176
     1
 40
1.0
176
     1
 90
        8
176
     1
 62
     7
176
     1
 40
1.0
176
     1
 90
        1
176
     1
 90
        6
176
     1
 90
        2
176
     1
 62
     7
176
     1
 90
        5
176
     1
 90
        0
176
     1
 90
        0
176
     1
290
     0
176
     1
 90
        1
176
     1
 40
-50.0
176
     1
 90
        0
176
     1
290
     0
176
     1
290
     1
176
     1
290
     1
176
     1
290
     0
176
     1
290
     0
176
     1
290
     0
176
     1
290
     0
176
     1
290
     0
176
     1
290
     0
176
     1
 90
       50
176
     1
 40
0.0
176
     1
 40
1.0
176
     1
 90
        0
176
     1
 62
    18
420
        0
176
     1
 90
       50
176
     1
 90
        3
176
     1
 62
     5
420
      255
176
     1
290
     0
176
     1
 90
       50
176
     1
 90
       50
176
     1
 90
       50
176
     1
290
     0
176
     1
 90
       50
176
     1
 62
   256
176
     0
 40
1.0
176
     0
 90
        2
176
     1
  1
strokes_ogs.tif
176
     1
290
     0
176
     1
 40
1.0
176
     1
 40
1.0
176
     1
1001
ACAD
1000
AcDbSavedByObjectVersion
1070
     0
  0
VISUALSTYLE
  5
80D
102
{ACAD_REACTORS
330
31
102
}
330
31
100
AcDbVisualStyle
  2
EdgeColorOff
 70
    22
177
     3
291
     1
 70
    58
 90
        2
176
     0
 90
        2
176
     0
 90
        0
176
     0
 90
        0
176
     0
 40
0.6
176
     0
 40
30.0
176
     0
 62
     7
420
 16777215
176
     0
 90
        1
176
     0
 90
        4
176
     0
 62
     7
176
     0
 62
   257
176
     0
 90
        1
176
     0
 90
        1
176
     0
 40
1.0
176
     0
 90
        8
176
     2
 62
     7
176
     0
 40
1.0
176
     0
 90
        1
176
     0
 90
        6
176
     0
 90
        2
176
     0
 62
     7
176
     0
 90
        5
176
     0
 90
        0
176
     0
 90
        0
176
     0
290
     0
176
     0
 90
        1
176
     0
 40
0.0
176
     0
 90
        0
176
     0
290
     0
176
     0
290
     1
176
     0
290
     1
176
     0
290
     0
176
     0
290
     0
176
     0
290
     0
176
     0
290
     0
176
     0
290
     0
176
     0
290
     0
176
     0
 90
       50
176
     0
 40
0.0
176
     0
 40
1.0
176
     0
 90
        0
176
     0
 62
    18
420
        0
176
     0
 90
       50
176
     0
 90
        3
176
     0
 62
     5
420
      255
176
     0
290
     0
176
     0
 90
       50
176
     0
 90
       50
176
     0
 90
       50
176
     0
290
     0
176
     0
 90
       50
176
     0
 62
   256
176
     0
 40
1.0
176
     0
 90
        2
176
     0
  1
strokes_ogs.tif
176
     0
290
     0
176
     0
 40
1.0
176
     0
 40
1.0
176
     0
1001
ACAD
1000
AcDbSavedByObjectVersion
1070
     0
  0
VISUALSTYLE
  5
21D
102
{ACAD_REACTORS
330
31
102
}
330
31
100
AcDbVisualStyle
  2
Facepattern
 70
    15
177
     3
291
     1
 70
    58
 90
        2
176
     1
 90
        2
176
     1
 90
        0
176
     1
 90
        0
176
     1
 40
0.6
176
     1
 40
30.0
176
     1
 62
     7
420
 16777215
176
     1
 90
        1
176
     1
 90
        4
176
     1
 62
     7
176
     1
 62
   257
176
     1
 90
        1
176
     1
 90
        1
176
     1
 40
1.0
176
     1
 90
        8
176
     1
 62
     7
176
     1
 40
1.0
176
     1
 90
        1
176
     1
 90
        6
176
     1
 90
        2
176
     1
 62
     7
176
     1
 90
        5
176
     1
 90
        0
176
     1
 90
        0
176
     1
290
     0
176
     1
 90
        1
176
     1
 40
0.0
176
     1
 90
        0
176
     1
290
     0
176
     1
290
     1
176
     1
290
     1
176
     1
290
     0
176
     1
290
     0
176
     1
290
     0
176
     1
290
     0
176
     1
290
     0
176
     1
290
     0
176
     1
 90
       50
176
     1
 40
0.0
176
     1
 40
1.0
176
     1
 90
        0
176
     1
 62
    18
420
        0
176
     1
 90
       50
176
     1
 90
        3
176
     1
 62
     5
420
      255
176
     1
290
     0
176
     1
 90
       50
176
     1
 90
       50
176
     1
 90
       50
176
     1
290
     0
176
     1
 90
       50
176
     1
 62
   256
176
     0
 40
1.0
176
     0
 90
        2
176
     1
  1
strokes_ogs.tif
176
     1
290
     0
176
     1
 40
1.0
176
     1
 40
1.0
176
     1
1001
ACAD
1000
AcDbSavedByObjectVersion
1070
     0
  0
VISUALSTYLE
  5
212
102
{ACAD_REACTORS
330
31
102
}
330
31
100
AcDbVisualStyle
  2
Flat
 70
     0
177
     3
291
     1
 70
    58
 90
        2
176
     1
 90
        1
176
     1
 90
        1
176
     1
 90
        2
176
     1
 40
0.6
176
     1
 40
30.0
176
     1
 62
     7
420
 16777215
176
     1
 90
        0
176
     1
 90
        4
176
     1
 62
     7
176
     1
 62
   257
176
     1
 90
        1
176
     1
 90
        1
176
     1
 40
1.0
176
     1
 90
        8
176
     1
 62
     7
176
     1
 40
1.0
176
     1
 90
        1
176
     1
 90
        6
176
     1
 90
        2
176
     1
 62
     7
176
     1
 90
        5
176
     1
 90
        0
176
     1
 90
        0
176
     1
290
     0
176
     1
 90
       13
176
     1
 40
0.0
176
     1
 90
        0
176
     1
290
     0
176
     1
290
     1
176
     1
290
     1
176
     1
290
     0
176
     1
290
     0
176
     1
290
     0
176
     1
290
     0
176
     1
290
     0
176
     1
290
     0
176
     1
 90
       50
176
     1
 40
0.0
176
     1
 40
1.0
176
     1
 90
        0
176
     1
 62
    18
420
        0
176
     1
 90
       50
176
     1
 90
        3
176
     1
 62
     5
420
      255
176
     1
290
     0
176
     1
 90
       50
176
     1
 90
       50
176
     1
 90
       50
176
     1
290
     0
176
     1
 90
       50
176
     1
 62
   256
176
     0
 40
1.0
176
     0
 90
        2
176
     1
  1
strokes_ogs.tif
176
     1
290
     0
176
     1
 40
1.0
176
     1
 40
1.0
176
     1
1001
ACAD
1000
AcDbSavedByObjectVersion
1070
     0
  0
VISUALSTYLE
  5
213
102
{ACAD_REACTORS
330
31
102
}
330
31
100
AcDbVisualStyle
  2
FlatWithEdges
 70
     1
177
     3
291
     1
 70
    58
 90
        2
176
     1
 90
        1
176
     1
 90
        1
176
     1
 90
        2
176
     1
 40
0.6
176
     1
 40
30.0
176
     1
 62
     7
420
 16777215
176
     1
 90
        1
176
     1
 90
        4
176
     1
 62
     7
176
     1
 62
   257
176
     1
 90
        1
176
     1
 90
        1
176
     1
 40
1.0
176
     1
 90
        0
176
     1
 62
   257
176
     1
 40
1.0
176
     1
 90
        1
176
     1
 90
        6
176
     1
 90
        2
176
     1
 62
     7
176
     1
 90
        5
176
     1
 90
        0
176
     1
 90
        0
176
     1
290
     0
176
     1
 90
       13
176
     1
 40
0.0
176
     1
 90
        0
176
     1
290
     0
176
     1
290
     1
176
     1
290
     1
176
     1
290
     0
176
     1
290
     0
176
     1
290
     0
176
     1
290
     0
176
     1
290
     0
176
     1
290
     0
176
     1
 90
       50
176
     1
 40
0.0
176
     1
 40
1.0
176
     1
 90
        0
176
     1
 62
    18
420
        0
176
     1
 90
       50
176
     1
 90
        3
176
     1
 62
     5
420
      255
176
     1
290
     0
176
     1
 90
       50
176
     1
 90
       50
176
     1
 90
       50
176
     1
290
     0
176
     1
 90
       50
176
     1
 62
   256
176
     0
 40
1.0
176
     0
 90
        2
176
     1
  1
strokes_ogs.tif
176
     1
290
     0
176
     1
 40
1.0
176
     1
 40
1.0
176
     1
1001
ACAD
1000
AcDbSavedByObjectVersion
1070
     0
  0
VISUALSTYLE
  5
214
102
{ACAD_REACTORS
330
31
102
}
330
31
100
AcDbVisualStyle
  2
Gouraud
 70
     2
177
     3
291
     1
 70
    58
 90
        2
176
     1
 90
        2
176
     1
 90
        1
176
     1
 90
        2
176
     1
 40
0.6
176
     1
 40
30.0
176
     1
 62
     7
420
 16777215
176
     1
 90
        0
176
     1
 90
        4
176
     1
 62
     7
176
     1
 62
   257
176
     1
 90
        1
176
     1
 90
        1
176
     1
 40
1.0
176
     1
 90
        0
176
     1
 62
     7
176
     1
 40
1.0
176
     1
 90
        1
176
     1
 90
        6
176
     1
 90
        2
176
     1
 62
     7
176
     1
 90
        5
176
     1
 90
        0
176
     1
 90
        0
176
     1
290
     0
176
     1
 90
       13
176
     1
 40
0.0
176
     1
 90
        0
176
     1
290
     0
176
     1
290
     1
176
     1
290
     1
176
     1
290
     0
176
     1
290
     0
176
     1
290
     0
176
     1
290
     0
176
     1
290
     0
176
     1
290
     0
176
     1
 90
       50
176
     1
 40
0.0
176
     1
 40
1.0
176
     1
 90
        0
176
     1
 62
    18
420
        0
176
     1
 90
       50
176
     1
 90
        3
176
     1
 62
     5
420
      255
176
     1
290
     0
176
     1
 90
       50
176
     1
 90
       50
176
     1
 90
       50
176
     1
290
     0
176
     1
 90
       50
176
     1
 62
   256
176
     0
 40
1.0
176
     0
 90
        2
176
     1
  1
strokes_ogs.tif
176
     1
290
     0
176
     1
 40
1.0
176
     1
 40
1.0
176
     1
1001
ACAD
1000
AcDbSavedByObjectVersion
1070
     0
  0
VISUALSTYLE
  5
215
102
{ACAD_REACTORS
330
31
102
}
330
31
100
AcDbVisualStyle
  2
GouraudWithEdges
 70
     3
177
     3
291
     1
 70
    58
 90
        2
176
     1
 90
        2
176
     1
 90
        1
176
     1
 90
        2
176
     1
 40
0.6
176
     1
 40
30.0
176
     1
 62
     7
420
 16777215
176
     1
 90
        1
176
     1
 90
        4
176
     1
 62
     7
176
     1
 62
   257
176
     1
 90
        1
176
     1
 90
        1
176
     1
 40
1.0
176
     1
 90
        0
176
     1
 62
   257
176
     1
 40
1.0
176
     1
 90
        1
176
     1
 90
        6
176
     1
 90
        2
176
     1
 62
     7
176
     1
 90
        5
176
     1
 90
        0
176
     1
 90
        0
176
     1
290
     0
176
     1
 90
       13
176
     1
 40
0.0
176
     1
 90
        0
176
     1
290
     0
176
     1
290
     1
176
     1
290
     1
176
     1
290
     0
176
     1
290
     0
176
     1
290
     0
176
     1
290
     0
176
     1
290
     0
176
     1
290
     0
176
     1
 90
       50
176
     1
 40
0.0
176
     1
 40
1.0
176
     1
 90
        0
176
     1
 62
    18
420
        0
176
     1
 90
       50
176
     1
 90
        3
176
     1
 62
     5
420
      255
176
     1
290
     0
176
     1
 90
       50
176
     1
 90
       50
176
     1
 90
       50
176
     1
290
     0
176
     1
 90
       50
176
     1
 62
   256
176
     0
 40
1.0
176
     0
 90
        2
176
     1
  1
strokes_ogs.tif
176
     1
290
     0
176
     1
 40
1.0
176
     1
 40
1.0
176
     1
1001
ACAD
1000
AcDbSavedByObjectVersion
1070
     0
  0
VISUALSTYLE
  5
805
102
{ACAD_REACTORS
330
31
102
}
330
31
100
AcDbVisualStyle
  2
Hidden
 70
     6
177
     3
291
     0
 70
    58
 90
        1
176
     1
 90
        2
176
     1
 90
        2
176
     1
 90
        0
176
     1
 40
0.6
176
     1
 40
30.0
176
     1
 62
     7
420
 16777215
176
     1
 90
        2
176
     1
 90
        2
176
     1
 62
     7
176
     1
 62
   257
176
     1
 90
        2
176
     1
 90
        1
176
     1
 40
40.0
176
     1
 90
        0
176
     1
 62
   257
176
     1
 40
1.0
176
     1
 90
        1
176
     1
 90
        6
176
     1
 90
        2
176
     1
 62
     7
176
     1
 90
        3
176
     1
 90
        0
176
     1
 90
        0
176
     1
290
     0
176
     1
 90
        1
176
     1
 40
0.0
176
     1
 90
        0
176
     1
290
     0
176
     1
290
     1
176
     1
290
     1
176
     1
290
     0
176
     1
290
     0
176
     1
290
     0
176
     1
290
     0
176
     1
290
     0
176
     1
290
     0
176
     1
 90
       50
176
     1
 40
0.0
176
     1
 40
1.0
176
     1
 90
        0
176
     1
 62
    18
420
        0
176
     1
 90
       50
176
     1
 90
        3
176
     1
 62
     5
420
      255
176
     1
290
     0
176
     1
 90
       50
176
     1
 90
       50
176
     1
 90
       50
176
     1
290
     0
176
     1
 90
       50
176
     1
 62
   256
176
     0
 40
1.0
176
     0
 90
        2
176
     1
  1
strokes_ogs.tif
176
     1
290
     0
176
     1
 40
1.0
176
     1
 40
1.0
176
     1
1001
ACAD
1000
AcDbSavedByObjectVersion
1070
     0
  0
VISUALSTYLE
  5
80B
102
{ACAD_REACTORS
330
31
102
}
330
31
100
AcDbVisualStyle
  2
JitterOff
 70
    20
177
     3
291
     1
 70
    58
 90
        2
176
     0
 90
        2
176
     0
 90
        0
176
     0
 90
        0
176
     0
 40
0.6
176
     0
 40
30.0
176
     0
 62
     7
420
 16777215
176
     0
 90
        1
176
     0
 90
        4
176
     0
 62
     7
176
     0
 62
   257
176
     0
 90
        1
176
     0
 90
        1
176
     0
 40
1.0
176
     0
 90
       10
176
     2
 62
     7
176
     0
 40
1.0
176
     0
 90
        1
176
     0
 90
        6
176
     0
 90
        2
176
     0
 62
     7
176
     0
 90
        5
176
     0
 90
        0
176
     0
 90
        0
176
     0
290
     0
176
     0
 90
        1
176
     0
 40
0.0
176
     0
 90
        0
176
     0
290
     0
176
     0
290
     1
176
     0
290
     1
176
     0
290
     0
176
     0
290
     0
176
     0
290
     0
176
     0
290
     0
176
     0
290
     0
176
     0
290
     0
176
     0
 90
       50
176
     0
 40
0.0
176
     0
 40
1.0
176
     0
 90
        0
176
     0
 62
    18
420
        0
176
     0
 90
       50
176
     0
 90
        3
176
     0
 62
     5
420
      255
176
     0
290
     0
176
     0
 90
       50
176
     0
 90
       50
176
     0
 90
       50
176
     0
290
     0
176
     0
 90
       50
176
     0
 62
   256
176
     0
 40
1.0
176
     0
 90
        2
176
     0
  1
strokes_ogs.tif
176
     0
290
     0
176
     0
 40
1.0
176
     0
 40
1.0
176
     0
1001
ACAD
1000
AcDbSavedByObjectVersion
1070
     0
  0
VISUALSTYLE
  5
21C
102
{ACAD_REACTORS
330
31
102
}
330
31
100
AcDbVisualStyle
  2
Linepattern
 70
    14
177
     3
291
     1
 70
    58
 90
        2
176
     1
 90
        2
176
     1
 90
        0
176
     1
 90
        0
176
     1
 40
0.6
176
     1
 40
30.0
176
     1
 62
     7
420
 16777215
176
     1
 90
        1
176
     1
 90
        4
176
     1
 62
     7
176
     1
 62
   257
176
     1
 90
        7
176
     1
 90
        7
176
     1
 40
1.0
176
     1
 90
        8
176
     1
 62
     7
176
     1
 40
1.0
176
     1
 90
        1
176
     1
 90
        6
176
     1
 90
        2
176
     1
 62
     7
176
     1
 90
        5
176
     1
 90
        0
176
     1
 90
        0
176
     1
290
     0
176
     1
 90
        1
176
     1
 40
0.0
176
     1
 90
        0
176
     1
290
     0
176
     1
290
     1
176
     1
290
     1
176
     1
290
     0
176
     1
290
     0
176
     1
290
     0
176
     1
290
     0
176
     1
290
     0
176
     1
290
     0
176
     1
 90
       50
176
     1
 40
0.0
176
     1
 40
1.0
176
     1
 90
        0
176
     1
 62
    18
420
        0
176
     1
 90
       50
176
     1
 90
        3
176
     1
 62
     5
420
      255
176
     1
290
     0
176
     1
 90
       50
176
     1
 90
       50
176
     1
 90
       50
176
     1
290
     0
176
     1
 90
       50
176
     1
 62
   256
176
     0
 40
1.0
176
     0
 90
        2
176
     1
  1
strokes_ogs.tif
176
     1
290
     0
176
     1
 40
1.0
176
     1
 40
1.0
176
     1
1001
ACAD
1000
AcDbSavedByObjectVersion
1070
     0
  0
VISUALSTYLE
  5
80C
102
{ACAD_REACTORS
330
31
102
}
330
31
100
AcDbVisualStyle
  2
OverhangOff
 70
    21
177
     3
291
     1
 70
    58
 90
        2
176
     0
 90
        2
176
     0
 90
        0
176
     0
 90
        0
176
     0
 40
0.6
176
     0
 40
30.0
176
     0
 62
     7
420
 16777215
176
     0
 90
        1
176
     0
 90
        4
176
     0
 62
     7
176
     0
 62
   257
176
     0
 90
        1
176
     0
 90
        1
176
     0
 40
1.0
176
     0
 90
        9
176
     2
 62
     7
176
     0
 40
1.0
176
     0
 90
        1
176
     0
 90
        6
176
     0
 90
        2
176
     0
 62
     7
176
     0
 90
        5
176
     0
 90
        0
176
     0
 90
        0
176
     0
290
     0
176
     0
 90
        1
176
     0
 40
0.0
176
     0
 90
        0
176
     0
290
     0
176
     0
290
     1
176
     0
290
     1
176
     0
290
     0
176
     0
290
     0
176
     0
290
     0
176
     0
290
     0
176
     0
290
     0
176
     0
290
     0
176
     0
 90
       50
176
     0
 40
0.0
176
     0
 40
1.0
176
     0
 90
        0
176
     0
 62
    18
420
        0
176
     0
 90
       50
176
     0
 90
        3
176
     0
 62
     5
420
      255
176
     0
290
     0
176
     0
 90
       50
176
     0
 90
       50
176
     0
 90
       50
176
     0
290
     0
176
     0
 90
       50
176
     0
 62
   256
176
     0
 40
1.0
176
     0
 90
        2
176
     0
  1
strokes_ogs.tif
176
     0
290
     0
176
     0
 40
1.0
176
     0
 40
1.0
176
     0
1001
ACAD
1000
AcDbSavedByObjectVersion
1070
     0
  0
VISUALSTYLE
  5
4F
102
{ACAD_REACTORS
330
31
102
}
330
31
100
AcDbVisualStyle
  2
Realistic
 70
     8
177
     3
291
     0
 70
    58
 90
        2
176
     1
 90
        2
176
     1
 90
        0
176
     1
 90
        0
176
     1
 40
0.6
176
     1
 40
30.0
176
     1
 62
     7
420
 16777215
176
     1
 90
        1
176
     1
 90
        0
176
     1
 62
     7
176
     1
 62
   257
176
     1
 90
        1
176
     1
 90
        1
176
     1
 40
1.0
176
     1
 90
        8
176
     1
 62
     8
420
  7895160
176
     1
 40
1.0
176
     1
 90
        1
176
     1
 90
        6
176
     1
 90
        2
176
     1
 62
     7
176
     1
 90
        5
176
     1
 90
        0
176
     1
 90
        0
176
     1
290
     0
176
     1
 90
       13
176
     1
 40
0.0
176
     1
 90
        0
176
     1
290
     0
176
     1
290
     1
176
     1
290
     1
176
     1
290
     0
176
     1
290
     0
176
     1
290
     0
176
     1
290
     0
176
     1
290
     0
176
     1
290
     0
176
     1
 90
       50
176
     1
 40
0.0
176
     1
 40
1.0
176
     1
 90
        0
176
     1
 62
    18
420
        0
176
     1
 90
       50
176
     1
 90
        3
176
     1
 62
     5
420
      255
176
     1
290
     0
176
     1
 90
       50
176
     1
 90
       50
176
     1
 90
       50
176
     1
290
     0
176
     1
 90
       50
176
     1
 62
   256
176
     0
 40
1.0
176
     0
 90
        2
176
     1
  1
strokes_ogs.tif
176
     1
290
     0
176
     1
 40
1.0
176
     1
 40
1.0
176
     1
1001
ACAD
1000
AcDbSavedByObjectVersion
1070
     0
  0
VISUALSTYLE
  5
80A
102
{ACAD_REACTORS
330
31
102
}
330
31
100
AcDbVisualStyle
  2
Shaded
 70
    27
177
     3
291
     0
 70
    58
 90
        2
176
     1
 90
        2
176
     1
 90
        1
176
     1
 90
        2
176
     1
 40
0.6
176
     1
 40
30.0
176
     1
 62
     7
420
 16777215
176
     1
 90
        0
176
     1
 90
        4
176
     1
 62
     7
176
     1
 62
   257
176
     1
 90
        1
176
     1
 90
        1
176
     1
 40
1.0
176
     1
 90
        8
176
     1
 62
   257
176
     1
 40
1.0
176
     1
 90
        1
176
     1
 90
        6
176
     1
 90
        2
176
     1
 62
     8
420
  7895160
176
     1
 90
        3
176
     1
 90
        0
176
     1
 90
        0
176
     1
290
     0
176
     1
 90
        5
176
     1
 40
0.0
176
     1
 90
        0
176
     1
290
     0
176
     1
290
     1
176
     1
290
     1
176
     1
290
     0
176
     1
290
     0
176
     1
290
     0
176
     1
290
     0
176
     1
290
     0
176
     1
290
     0
176
     1
 90
       50
176
     1
 40
0.0
176
     1
 40
1.0
176
     1
 90
        0
176
     1
 62
    18
420
        0
176
     1
 90
       50
176
     1
 90
        3
176
     1
 62
     5
420
      255
176
     1
290
     0
176
     1
 90
       50
176
     1
 90
       50
176
     1
 90
       50
176
     1
290
     0
176
     1
 90
       50
176
     1
 62
   256
176
     0
 40
1.0
176
     0
 90
        2
176
     1
  1
strokes_ogs.tif
176
     1
290
     0
176
     1
 40
1.0
176
     1
 40
1.0
176
     1
1001
ACAD
1000
AcDbSavedByObjectVersion
1070
     0
  0
VISUALSTYLE
  5
809
102
{ACAD_REACTORS
330
31
102
}
330
31
100
AcDbVisualStyle
  2
Shaded with edges
 70
    26
177
     3
291
     0
 70
    58
 90
        2
176
     1
 90
        2
176
     1
 90
        1
176
     1
 90
        2
176
     1
 40
0.6
176
     1
 40
30.0
176
     1
 62
     7
420
 16777215
176
     1
 90
        1
176
     1
 90
        2
176
     1
 62
     7
176
     1
 62
   257
176
     1
 90
        2
176
     1
 90
        1
176
     1
 40
1.0
176
     1
 90
        8
176
     1
 62
   257
176
     1
 40
1.0
176
     1
 90
        1
176
     1
 90
        6
176
     1
 90
        2
176
     1
 62
     7
176
     1
 90
        3
176
     1
 90
        0
176
     1
 90
        0
176
     1
290
     0
176
     1
 90
        5
176
     1
 40
0.0
176
     1
 90
        0
176
     1
290
     0
176
     1
290
     1
176
     1
290
     1
176
     1
290
     0
176
     1
290
     0
176
     1
290
     0
176
     1
290
     0
176
     1
290
     0
176
     1
290
     0
176
     1
 90
       50
176
     1
 40
0.0
176
     1
 40
1.0
176
     1
 90
        0
176
     1
 62
    18
420
        0
176
     1
 90
       50
176
     1
 90
        3
176
     1
 62
     5
420
      255
176
     1
290
     0
176
     1
 90
       50
176
     1
 90
       50
176
     1
 90
       50
176
     1
290
     0
176
     1
 90
       50
176
     1
 62
   256
176
     0
 40
1.0
176
     0
 90
        2
176
     1
  1
strokes_ogs.tif
176
     1
290
     0
176
     1
 40
1.0
176
     1
 40
1.0
176
     1
1001
ACAD
1000
AcDbSavedByObjectVersion
1070
     0
  0
VISUALSTYLE
  5
806
102
{ACAD_REACTORS
330
31
102
}
330
31
100
AcDbVisualStyle
  2
Shades of Gray
 70
    23
177
     3
291
     0
 70
    58
 90
        2
176
     1
 90
        2
176
     1
 90
        3
176
     1
 90
        0
176
     1
 40
0.6
176
     1
 40
30.0
176
     1
 62
     7
420
 16777215
176
     1
 90
        2
176
     1
 90
        2
176
     1
 62
     7
176
     1
 62
     7
176
     1
 90
        1
176
     1
 90
        1
176
     1
 40
40.0
176
     1
 90
        8
176
     1
 62
     7
176
     1
 40
1.0
176
     1
 90
        1
176
     1
 90
        6
176
     1
 90
        2
176
     1
 62
     7
176
     1
 90
        3
176
     1
 90
        0
176
     1
 90
        0
176
     1
290
     0
176
     1
 90
        1
176
     1
 40
0.0
176
     1
 90
        0
176
     1
290
     0
176
     1
290
     1
176
     1
290
     1
176
     1
290
     0
176
     1
290
     0
176
     1
290
     0
176
     1
290
     0
176
     1
290
     0
176
     1
290
     0
176
     1
 90
       50
176
     1
 40
0.0
176
     1
 40
1.0
176
     1
 90
        0
176
     1
 62
    18
420
        0
176
     1
 90
       50
176
     1
 90
        3
176
     1
 62
     5
420
      255
176
     1
290
     0
176
     1
 90
       50
176
     1
 90
       50
176
     1
 90
       50
176
     1
290
     0
176
     1
 90
       50
176
     1
 62
   256
176
     0
 40
1.0
176
     0
 90
        2
176
     1
  1
strokes_ogs.tif
176
     1
290
     0
176
     1
 40
1.0
176
     1
 40
1.0
176
     1
1001
ACAD
1000
AcDbSavedByObjectVersion
1070
     0
  0
VISUALSTYLE
  5
807
102
{ACAD_REACTORS
330
31
102
}
330
31
100
AcDbVisualStyle
  2
Sketchy
 70
    24
177
     3
291
     0
 70
    58
 90
        1
176
     1
 90
        2
176
     1
 90
        2
176
     1
 90
        0
176
     1
 40
0.6
176
     1
 40
30.0
176
     1
 62
     7
420
 16777215
176
     1
 90
        2
176
     1
 90
        2
176
     1
 62
     7
176
     1
 62
     7
176
     1
 90
        1
176
     1
 90
        1
176
     1
 40
40.0
176
     1
 90
       11
176
     1
 62
     7
176
     1
 40
1.0
176
     1
 90
        1
176
     1
 90
        6
176
     1
 90
        2
176
     1
 62
     7
176
     1
 90
        6
176
     1
 90
        0
176
     1
 90
        0
176
     1
290
     0
176
     1
 90
        1
176
     1
 40
0.0
176
     1
 90
        0
176
     1
290
     0
176
     1
290
     1
176
     1
290
     1
176
     1
290
     0
176
     1
290
     0
176
     1
290
     0
176
     1
290
     0
176
     1
290
     0
176
     1
290
     0
176
     1
 90
       50
176
     1
 40
0.0
176
     1
 40
1.0
176
     1
 90
        0
176
     1
 62
    18
420
        0
176
     1
 90
       50
176
     1
 90
        3
176
     1
 62
     5
420
      255
176
     1
290
     0
176
     1
 90
       50
176
     1
 90
       50
176
     1
 90
       50
176
     1
290
     0
176
     1
 90
       50
176
     1
 62
   256
176
     0
 40
1.0
176
     0
 90
        2
176
     1
  1
strokes_ogs.tif
176
     1
290
     0
176
     1
 40
1.0
176
     1
 40
1.0
176
     1
1001
ACAD
1000
AcDbSavedByObjectVersion
1070
     0
  0
VISUALSTYLE
  5
21B
102
{ACAD_REACTORS
330
31
102
}
330
31
100
AcDbVisualStyle
  2
Thicken
 70
    13
177
     3
291
     1
 70
    58
 90
        2
176
     1
 90
        2
176
     1
 90
        0
176
     1
 90
        0
176
     1
 40
0.6
176
     1
 40
30.0
176
     1
 62
     7
420
 16777215
176
     1
 90
        1
176
     1
 90
        4
176
     1
 62
     7
176
     1
 62
   257
176
     1
 90
        1
176
     1
 90
        1
176
     1
 40
1.0
176
     1
 90
       12
176
     1
 62
     7
176
     1
 40
1.0
176
     1
 90
        1
176
     1
 90
        6
176
     1
 90
        2
176
     1
 62
     7
176
     1
 90
        5
176
     1
 90
        0
176
     1
 90
        0
176
     1
290
     0
176
     1
 90
        1
176
     1
 40
0.0
176
     1
 90
        0
176
     1
290
     0
176
     1
290
     1
176
     1
290
     1
176
     1
290
     0
176
     1
290
     0
176
     1
290
     0
176
     1
290
     0
176
     1
290
     0
176
     1
290
     0
176
     1
 90
       50
176
     1
 40
0.0
176
     1
 40
1.0
176
     1
 90
        0
176
     1
 62
    18
420
        0
176
     1
 90
       50
176
     1
 90
        3
176
     1
 62
     5
420
      255
176
     1
290
     0
176
     1
 90
       50
176
     1
 90
       50
176
     1
 90
       50
176
     1
290
     0
176
     1
 90
       50
176
     1
 62
   256
176
     0
 40
1.0
176
     0
 90
        2
176
     1
  1
strokes_ogs.tif
176
     1
290
     0
176
     1
 40
1.0
176
     1
 40
1.0
176
     1
1001
ACAD
1000
AcDbSavedByObjectVersion
1070
     0
  0
VISUALSTYLE
  5
804
102
{ACAD_REACTORS
330
31
102
}
330
31
100
AcDbVisualStyle
  2
Wireframe
 70
     5
177
     3
291
     0
 70
    58
 90
        0
176
     1
 90
        2
176
     1
 90
        0
176
     1
 90
        0
176
     1
 40
0.6
176
     1
 40
30.0
176
     1
 62
     7
420
 16777215
176
     1
 90
        1
176
     1
 90
        4
176
     1
 62
     7
176
     1
 62
   257
176
     1
 90
        1
176
     1
 90
        1
176
     1
 40
1.0
176
     1
 90
        0
176
     1
 62
   257
176
     1
 40
1.0
176
     1
 90
        1
176
     1
 90
        6
176
     1
 90
        2
176
     1
 62
     7
176
     1
 90
        3
176
     1
 90
        0
176
     1
 90
        0
176
     1
290
     0
176
     1
 90
        1
176
     1
 40
0.0
176
     1
 90
        0
176
     1
290
     0
176
     1
290
     1
176
     1
290
     1
176
     1
290
     0
176
     1
290
     0
176
     1
290
     0
176
     1
290
     0
176
     1
290
     0
176
     1
290
     0
176
     1
 90
       50
176
     1
 40
0.0
176
     1
 40
1.0
176
     1
 90
        0
176
     1
 62
    18
420
        0
176
     1
 90
       50
176
     1
 90
        3
176
     1
 62
     5
420
      255
176
     1
290
     0
176
     1
 90
       50
176
     1
 90
       50
176
     1
 90
       50
176
     1
290
     0
176
     1
 90
       50
176
     1
 62
   256
176
     0
 40
1.0
176
     0
 90
        2
176
     1
  1
strokes_ogs.tif
176
     1
290
     0
176
     1
 40
1.0
176
     1
 40
1.0
176
     1
1001
ACAD
1000
AcDbSavedByObjectVersion
1070
     0
  0
VISUALSTYLE
  5
808
102
{ACAD_REACTORS
330
31
102
}
330
31
100
AcDbVisualStyle
  2
X-Ray
 70
    25
177
     3
291
     0
 70
    58
 90
        2
176
     1
 90
        2
176
     1
 90
        1
176
     1
 90
        1
176
     1
 40
0.5
176
     1
 40
30.0
176
     1
 62
     7
420
 16777215
176
     1
 90
        1
176
     1
 90
        0
176
     1
 62
     7
176
     1
 62
   257
176
     1
 90
        1
176
     1
 90
        1
176
     1
 40
1.0
176
     1
 90
        8
176
     1
 62
     7
176
     1
 40
1.0
176
     1
 90
        1
176
     1
 90
        6
176
     1
 90
        2
176
     1
 62
     7
176
     1
 90
        3
176
     1
 90
        0
176
     1
 90
        0
176
     1
290
     0
176
     1
 90
       13
176
     1
 40
0.0
176
     1
 90
        0
176
     1
290
     0
176
     1
290
     1
176
     1
290
     1
176
     1
290
     0
176
     1
290
     0
176
     1
290
     0
176
     1
290
     0
176
     1
290
     0
176
     1
290
     0
176
     1
 90
       50
176
     1
 40
0.0
176
     1
 40
1.0
176
     1
 90
        0
176
     1
 62
    18
420
        0
176
     1
 90
       50
176
     1
 90
        3
176
     1
 62
     5
420
      255
176
     1
290
     0
176
     1
 90
       50
176
     1
 90
       50
176
     1
 90
       50
176
     1
290
     0
176
     1
 90
       50
176
     1
 62
   256
176
     0
 40
1.0
176
     0
 90
        2
176
     1
  1
strokes_ogs.tif
176
     1
290
     0
176
     1
 40
1.0
176
     1
 40
1.0
176
     1
1001
ACAD
1000
AcDbSavedByObjectVersion
1070
     0
  0
DICTIONARYVAR
  5
20F
102
{ACAD_REACTORS
330
20C
102
}
330
20C
100
DictionaryVariables
280
     0
  1
1:5
  0
DICTIONARYVAR
  5
20E
102
{ACAD_REACTORS
330
20C
102
}
330
20C
100
DictionaryVariables
280
     0
  1
STANDARD
  0
DICTIONARYVAR
  5
20D
102
{ACAD_REACTORS
330
20C
102
}
330
20C
100
DictionaryVariables
280
     0
  1
STANDARD
  0
DICTIONARYVAR
  5
A83
102
{ACAD_REACTORS
330
20C
102
}
330
20C
100
DictionaryVariables
280
     0
  1
Imperial24
  0
DICTIONARYVAR
  5
A84
102
{ACAD_REACTORS
330
20C
102
}
330
20C
100
DictionaryVariables
280
     0
  1
Imperial24
  0
DICTIONARYVAR
  5
B3E
102
{ACAD_REACTORS
330
20C
102
}
330
20C
100
DictionaryVariables
280
     0
  1
BYLAYER
  0
DICTIONARYVAR
  5
B3D
102
{ACAD_REACTORS
330
20C
102
}
330
20C
100
DictionaryVariables
280
     0
  1
ByLayer
  0
DICTIONARYVAR
  5
A85
102
{ACAD_REACTORS
330
20C
102
}
330
20C
100
DictionaryVariables
280
     0
  1
1
  0
DICTIONARYVAR
  5
A86
102
{ACAD_REACTORS
330
20C
102
}
330
20C
100
DictionaryVariables
280
     0
  1
15
  0
DICTIONARYVAR
  5
210
102
{ACAD_REACTORS
330
20C
102
}
330
20C
100
DictionaryVariables
280
     0
  1
0
  0
DICTIONARY
  5
B54
102
{ACAD_REACTORS
330
B52
102
}
330
B52
100
AcDbDictionary
281
     1
  0
DICTIONARY
  5
B53
102
{ACAD_REACTORS
330
B52
102
}
330
B52
100
AcDbDictionary
281
     1
  3
3123334876240
350
B4D
  3
3123334876256
350
B4E
  3
3123334876272
350
B4F
  3
3123334876288
350
B50
  3
3123334876304
350
B51
  0
DICTIONARY
  5
B57
330
811
100
AcDbDictionary
280
     1
281
     1
  3
ACAD_XREC_ROUNDTRIP
360
B58
  0
DICTIONARY
  5
1E
330
1D
100
AcDbDictionary
280
     1
281
     1
  0
DICTIONARY
  5
42
330
41
100
AcDbDictionary
280
     1
281
     1
  3
BUMPTILE
360
43
  3
DIFFUSETILE
360
44
  3
OPACITYTILE
360
45
  3
REFLECTIONTILE
360
46
  3
REFRACTIONTILE
360
47
  3
SPECULARTILE
360
48
  0
DICTIONARY
  5
3A
330
39
100
AcDbDictionary
280
     1
281
     1
  3
BUMPTILE
360
3B
  3
DIFFUSETILE
360
3C
  3
OPACITYTILE
360
3D
  3
REFLECTIONTILE
360
3E
  3
REFRACTIONTILE
360
3F
  3
SPECULARTILE
360
40
  0
DICTIONARY
  5
E
330
C
100
AcDbDictionary
280
     1
281
     1
  3
BUMPTILE
360
F
  3
DIFFUSETILE
360
10
  3
FBXASSET
360
A75
  3
OPACITYTILE
360
11
  3
REFLECTIONTILE
360
12
  3
REFRACTIONTILE
360
13
  3
SPECULARTILE
360
14
  0
DICTIONARY
  5
B55
330
80F
100
AcDbDictionary
280
     1
281
     1
  3
ACAD_XREC_ROUNDTRIP
360
B56
  0
DICTIONARY
  5
4E
330
4D
100
AcDbDictionary
280
     1
281
     1
  3
ACAD_ROUNDTRIP_2008_TABLESTYLE_CELLSTYLEMAP
360
B4A
  0
XRECORD
  5
B4D
102
{ACAD_REACTORS
330
B53
102
}
330
B53
100
AcDbXrecord
280
     1
  1
AcDb_Thumbnail_Schema
102
{ATTRRECORD
341
B4E
  2
AcDbDs::TreatedAsObjectData
280
     1
291
     1
102
ATTRRECORD}
102
{ATTRRECORD
341
B4F
  2
AcDbDs::Legacy
280
     1
291
     1
102
ATTRRECORD}
  2
AcDbDs::ID
280
    10
 91
        8
102
{ATTRRECORD
341
B50
  2
AcDs:Indexable
280
     1
291
     1
102
ATTRRECORD}
102
{ATTRRECORD
341
B51
  2
AcDbDs::HandleAttribute
280
     7
282
     1
102
ATTRRECORD}
  2
Thumbnail_Data
280
    15
 91
        0
  0
XRECORD
  5
B4E
102
{ACAD_REACTORS
330
B53
102
}
330
B53
100
AcDbXrecord
280
     1
  1
AcDbDs::TreatedAsObjectDataSchema
  2
AcDbDs::TreatedAsObjectData
280
     1
 91
        0
  0
XRECORD
  5
B4F
102
{ACAD_REACTORS
330
B53
102
}
330
B53
100
AcDbXrecord
280
     1
  1
AcDbDs::LegacySchema
  2
AcDbDs::Legacy
280
     1
 91
        0
  0
XRECORD
  5
B50
102
{ACAD_REACTORS
330
B53
102
}
330
B53
100
AcDbXrecord
280
     1
  1
AcDbDs::IndexedPropertySchema
  2
AcDs:Indexable
280
     1
 91
        0
  0
XRECORD
  5
B51
102
{ACAD_REACTORS
330
B53
102
}
330
B53
100
AcDbXrecord
280
     1
  1
AcDbDs::HandleAttributeSchema
  2
AcDbDs::HandleAttribute
280
     7
 91
        1
284
     1
  0
XRECORD
  5
B58
102
{ACAD_REACTORS
330
B57
102
}
330
B57
100
AcDbXrecord
280
     1
102
DISPLAYNAME
  1
Imperial24
102
FLAGS
 90
        0
  0
XRECORD
  5
43
102
{ACAD_REACTORS
330
42
102
}
330
42
100
AcDbXrecord
280
     1
270
     1
271
     1
  0
XRECORD
  5
44
102
{ACAD_REACTORS
330
42
102
}
330
42
100
AcDbXrecord
280
     1
270
     1
271
     1
  0
XRECORD
  5
45
102
{ACAD_REACTORS
330
42
102
}
330
42
100
AcDbXrecord
280
     1
270
     1
271
     1
  0
XRECORD
  5
46
102
{ACAD_REACTORS
330
42
102
}
330
42
100
AcDbXrecord
280
     1
270
     1
271
     1
  0
XRECORD
  5
47
102
{ACAD_REACTORS
330
42
102
}
330
42
100
AcDbXrecord
280
     1
270
     1
271
     1
  0
XRECORD
  5
48
102
{ACAD_REACTORS
330
42
102
}
330
42
100
AcDbXrecord
280
     1
270
     1
271
     1
  0
XRECORD
  5
3B
102
{ACAD_REACTORS
330
3A
102
}
330
3A
100
AcDbXrecord
280
     1
270
     1
271
     1
  0
XRECORD
  5
3C
102
{ACAD_REACTORS
330
3A
102
}
330
3A
100
AcDbXrecord
280
     1
270
     1
271
     1
  0
XRECORD
  5
3D
102
{ACAD_REACTORS
330
3A
102
}
330
3A
100
AcDbXrecord
280
     1
270
     1
271
     1
  0
XRECORD
  5
3E
102
{ACAD_REACTORS
330
3A
102
}
330
3A
100
AcDbXrecord
280
     1
270
     1
271
     1
  0
XRECORD
  5
3F
102
{ACAD_REACTORS
330
3A
102
}
330
3A
100
AcDbXrecord
280
     1
270
     1
271
     1
  0
XRECORD
  5
40
102
{ACAD_REACTORS
330
3A
102
}
330
3A
100
AcDbXrecord
280
     1
270
     1
271
     1
  0
XRECORD
  5
F
102
{ACAD_REACTORS
330
E
102
}
330
E
100
AcDbXrecord
280
     1
270
     1
271
     1
  0
XRECORD
  5
10
102
{ACAD_REACTORS
330
E
102
}
330
E
100
AcDbXrecord
280
     1
270
     1
271
     1
  0
XRECORD
  5
A75
102
{ACAD_REACTORS
330
E
102
}
330
E
100
AcDbXrecord
280
     1
 70
     1
 90
-1506045146
 71
     1
  1
E016D3FB-62CC-41E2-A785-37FFF33DA7BF
311
504B0304140006080800EB65314788C2FFA8DA000000200100004F00000030383238313636462D394245322D343833362D423634342D4134443639354639363241452F4173736574446174612F446566696E6974696F6E4974657261746F7250726F706572746965732E62696E454E3D4FC33010350C200686FE83AABB71E2
311
264D1DB5454E8B98E802134B7575AE2592935471223132F2AFE14E14F5A477EF3EDFDDB710E2E76C148A2BC217F97BE2676CB0ABDCABFBC01AC40D577CBB077F7BE95D53C8E9060F30F89EB75EAAE0D07B68B01DC2E8323AAEA12739F00FBC7447F82F045638FE1DE3FB5B02BFC40CE5297F8410B05FAAC3FE534599B1335B
311
18696D5AC864BA4EE55C9BB52C12FBA467765E1833551D8676E81C06A555B43B2BEF4ECDB12A578BBEAA71DC408DCB89EB907E2A272B1DC5A98C8C8CB3B758E749966BFDBE503CF90B504B0304140006080800EB653147BDC0B2F913010000300200004500000030383238313636462D394245322D343833362D423634342D
311
4134443639354639363241452F4173736574446174612F496E7374616E636550726F706572746965732E62696EEB606060F80F0540260323103700495E20ED9E9A975A94991C9C9C919A9BA802147035303473317673D235337276D635317435D27534B730D5353677737333367671347772634768046931363471713532B5
311
D435353131D635313332D475727372D13534373670367376B67474B5042A03DBCBA019D37FE8ABC6157B20CD04146B0062181F4C03F940F0C11EA29A8141C08141002C0426541C106CAC2CA046088033B02A030AC2157C6006F21A8018AAF50194E6010A610250382264E08660284CD9E98021862280A91564B406929A0FF6
311
2C401E28B6F88038B83CB1243943D7A928312F25350524C3B02FDD1844312840E8065908ED70134A336780E51B7643D51541C57B21F4817750F907107E433E840600504B0304140006080800EB65314728BB58AF800100009E0500003D00000030383238313636462D394245322D343833362D423634342D41344436393546
311
39363241452F536368656D61732F436F6D6D6F6E536368656D612E786D6CBD544D4FC23018BEFB2B96DE15493C78601010A34B880709DEDFB52FD0D8B54BD70DF6EFED3AC0B12E6442E2716BFB3CEFF3D18E26FB440405EA8C2B1992E1C323095052C5B8DC842437EBFB673219DF8DA659866649B798C078B48AE641012224
311
2F2A4994AC7F93815DF85C049C8564CA0A901499DD886B2EB9B1E02448F358701A9235880C49A0119892A20C89D1B9FD768815CAD268CB5E0355B40B1E47F3E37A2020464BED06AA57CE8FCC20C3C3446D46761A2632A8C1283D07031EFF2AE7CCB1BFEEE916E406DFAC8E36FFD99A9D60A6944090EEDC3B670C7DC13DE86B
311
6B2C5C240D6E503BB85ACD579D513F1B9F9A69DC9CC22AFA80C426D40AF0B21EA168559156B6276F0F726A6BFF04DCD513A87A62CAD41FB24FCB2858B3952E3D852084DA25B9303C15687973CC8E8AAE11DF2836C38C6A9E765E8C1BA1BFB1DC29CDFE518C8B5A7655A4ED7E77291ABEB80DBD82EC866ADE1B8D05AF9E35CF
311
09D7A061F38A986D9EC412B8F0F65E5D81534D9B231D1E5A8FE577A241F3A5FD01504B0304140006080800EB6531472CCEBD668A040000E01200003E00000030383238313636462D394245322D343833362D423634342D4134443639354639363241452F536368656D61732F47656E65726963536368656D612E786D6CD558
311
6D6FDB380CFE7EBF42F0F7A649B70E1B90744856B4970F450FCD7A5F05459613EDE4174872DADCAF3F522F8ED3B88D2F1D06AC4050DBA2493EE4438AF2F8EB73AEC8466823CB62928C06C384888297A92C5693A4B6D9D9E7E4EBD51FE3A931C22EF85AE4EC6AFC38BF261BA626C9AD288496DC3F4FCEAFC63366845F7A1045
311
2AF41DB320C0D44EC26EAB20918735565582695670811A6A49643A49A6E9069FA4604A64B29016DC4B48552F95E4932463CA888468C1D2B250DB4962750DF7CE273069CE8363F1FF4EDB00E0A21999574AE4A2B00C353B93F3BD4777B8A61ED8F604ABFEDD79CE56A2B7BDFBDBC50996E0ADDE16FED26223C5D30956C29BDF
311
4A55EA686E5E58B112DA45CE67F76F4FA27EFA3FB672FD7372FC388FAECDCA5209E693CAD167BADCD272F943701B3812F8A3D852008B1D2E32DB927B2F833C6EA95879925356D254582695095A3CE982924720BE5774A3CB9CDCDB350427D2DF20DA1B5532EBE2D5D6288D75D4F7E4FD9890A0EF8E3D93EBB8F8BA4758158E
311
F6FB90A6F9520281C93DE7AAC6D24607DA296BB96018123F821A7D6A5C5884050C475DA4865442732C8B95684A50165CBB3A32F25F783A4A480ED59AD7F924B968AEA50131F46303223E6A397B0E52976030DC1DCA81D7E7C1EDEEA42C19FF27635C505E2BD5198A599020DF50A2330FCB3AAF28CB0124108429553EF1B228
311
802E2265D8F7CC2401042B155BCC7070F1E5C55F13B4A9577362CCCE46C32174E010C3C378C44841A4BDA00FE3A12006CE11EE6AEC59894D3526DDE1CD59D503ECC324017F8061B7F162162FA62EDD81AE3308617770796DCBDAD2B2625C5AE8A63DE20B2C8AA5E95E76E5730823955956E33E705425A2187C185D36489A1B
311
44D3DCEC2172F6BA2105C3546287A7194B2331768EBBE64F6E70A9930ABE0ADEA89E9E2C38523B810287AD67A54A039C1606EAFE68F8304610BB9093DBDDABC0B2AE4E290DCDA15376D7E39F72B556F0B32EAB5D3D498B4C41ABADEC3A1434C422D87E8025A84BDCB2B1417ED750FAE4DA8976863974C577C7F902D3F156AD
311
354DEA3540DE6BEAE2BEA52F7A2EB4CA43802ECE5BF2CE2EDC9347179FFB023CE412E60BE16DA0BE29B374988A553F561DC04615DD35F7D2C8979F60E5955CE93DF29DED8AFA1EE6642D53418086C03C47C377910F75F7E8F5EF665F70B60FFB22AEDF897D119E8423C773E819A3C1E55E550599EE6EDCA34D0C86FD72057D
311
F2CD46F16A470682471C164E4346D5306BF12D7D12D82CFF673D41636C347443FEB51B50D72EA171A8E4A58623A4A16E0FA2B8B10A0D23268D87C33896EE8FB73305A74BF224EDBADFA0BD674AB354D63DB7BD5D83426761C077DE767728235446A552754EB93B755891C3C4CC6CADE37CF0E912A7BB38DBA010F9DE1282ED
311
F470CA69A9CDA482E334C4A6EA4107987980B17E72F31730EBF88BBD39E7C629F56797A3C0009C2C5AE7951D9A05A02773440F02EEB4DE396A3B6A570C72CCFBCD823B0B8ED3F1D5CEDDFED772FA70236C83FB7D86C385D570B87107535572A60A96035F8F7C6A7192F13007246BBE0521855E6AC46F3E27689CEE7D186A6F
311
D679D98CDCAD13333E04EBE7ED6F55FF01504B0304140006080800EB6531476180134D5F0100006B0300004500000030383238313636462D394245322D343833362D423634342D4134443639354639363241452F536368656D61732F52656E6465724D6174657269616C536368656D612E786D6CA5934D6FC2300C86EFFB15
311
51EEE343DBA41D1A103009551ADAD40EAE28A4A68D9426284961FCFBE5A340113B2071746D3F765EBF4DC6BFB5407BD0862B49F0B037C0082453059725C18DDD3EBFE3F1E829991803366715D474942CD30FB4A782E00C64017A412D684E454CE3FE28995203B162A6EA5AC94B66997D225E109CD63B0135484BAD1B3C07E9
311
080CA35DB3119C11BCA5C200461A68A1A438126C75E3E230D40FF81FB3F03C91D1E3A3A0AF79FE28E25BC39EC3E17E4C2A2D94A0833A51AF55BCCA7D88572FCBAC529C4140B020FC3AAFA886621DCED7EAD7664CC86024E806DC297DA1BB393E4156543457A4537DB8817349A70F8ACBF09B3EEE2CB2F33E91B65D60786E4E
311
3B39B77E3FEEEF5650424525DA657FB8B46BE6BF064646F0A0F7327C0BC1BC1B4CBBC1C419FA3CCB23500007872A2580CAAE5461865565294E4EDB4617B62FF579DF9A5B2F54E834076A597573A020912FED777F9B3F504B0304140006080800EB6531472037150551000000570000004700000030383238313636462D3942
311
45322D343833362D423634342D4134443639354639363241452F4173736574446174612F41737365745461626C654F66436F6E74656E74732E62696E536160607035303473317673D235337276D635317435D27534B730D53536777373333676713477721302AACB4D2C492DCA4CCC492C28484D2C4ACC4B4E050A82012F90
311
744FCD03CA26072767A4E6260200504B0304140006080800EB653147F865834058000000680000004500000030383238313636462D394245322D343833362D423634342D4134443639354639363241452F4173736574446174612F53747265616D56657273696F6E5461626C652E696E66558CBD0A80300C06F73E4B117FB6
311
6E451741D041DC5BF98480A492E4FDD18EAEC7DD4555D89EF28DF51A0B1BD8340C4DE7DD848B988C0ACF0649566493F2408C508DDEBB99D5129FF8F1AF8CF5B9503E20FAE5A16B5AF702504B0304140006080800EB65314701411B1F350100009A0400003600000030383238313636462D394245322D343833362D42363434
311
2D4134443639354639363241452F4173736574446174612F636E782E786D6CCD94314FC3301085FF4AE43D7612810A95E30AC1D209242A06B6AB7369AD3A76645F10FC7BEC3603A888A943D7F3BBF3F327BF93ABCFC1161F18A2F1AE6535AF58814EFBCEB85DCB26EACB3B56AC940CDED30F192B1C0CD8B25C664AEE829FC6
311
B9D4610F93CD556BDC612E3EC488B481ADC5E7FED13B42479115DA428C2D8B7A8F037098C877180FBC03025EF380D14F41639A4466C079920E08841D534D55DF96D57D592F3675B3BC592C9BE65D8AAC5472EBBD9DF5265D16FC58E8D3AD4C5552E46325A760664D7E0B537F79E45BE3A4484A252385C464EEA0AF3175C038
311
5AA381123AE13521954984304871122B2932835F249EB037CEE496753206E4C34BB287810C5E1D91FFBC5E9ECCDA4502A7F17A799C3BBC3C85D7E30F7A3B05F298986BCBC9B9436E5C7F819488E31A49A1C95B457D03504B0304140006080800EB653147BCF7EAB7090100004F0300003400000030383238313636462D3942
311
45322D343833362D423634342D4134443639354639363241452F536368656D61732F636E782E786D6CCD93BD4E042114855F65423F3033D1AC6E18B6B0B0B2512B3B84BBBB64813BE1C7E8DB0B23C56E62A7C57670F842CE395CF8EED3D9EE034234E86732D28174E0156AE30F33C969DFDF916E2778404C6718E9BC743093
311
2A13C10F01F3D2240D7B996D55ADF1A7263EA073E85FD4119C249DB232C699C4754B654EA8219EA89649D29106889883827243320EDA0D2A804CA0899886F1B61FEEFB71F33A4EDB9BCD769ADE38ABA4E0EF88B6F1C62708B8740ACBC2173B0367F558F01C4C636A0622CEBDD1D2066785103CA6503A6864FA5A0A2997C51A
311
2553A98AADE00F2338AB512F023F828760D47526BE30F76F919FC16B084FE5958291F63A93FFE6F16F05B075F6CB08D4AF20BE01504B0304140006080800EB653147410A3D5871000000A40000002C00000030383238313636462D394245322D343833362D423634342D4134443639354639363241452F636E782E786D6C55
311
CC4D0E82301086E1AB34B31774E7A22D31F1069E60020334B633A63FC6E34B0909B07DDE2F9FEE7EC1AB2FC5E4840DDC9A2B28E25E06C7938192C7CB1D54677514C9871928C640062A83D55394F2D968A0118BAFEA1DBF377CA444F98919176EAB9FEAAB9F2960DA5BBB1E2ED3FA6FFF504B0304140006080800EB65314762
311
E2C88C7E000000A300000007000000636E782E786D6C4D8CD10A832018465F45FE7BB772EE47218D62F51EB12C64A6C3E5D8E34F4717BBFAE0F09DD3B49FCD91B7892F1BBC82FA540131FE1E66EB5705695FA800D2EA2686B0FFDD80F869330A0A06DDAC31A4E78166B34CC915EAAC7F1CB0124CD4882395FDC0281717A43D
311
724E3B7E43791D25B26EC8C6B928797EBDBC25AFBF504B0304140006080800EB65314716E99B5DA600000035010000130000005B436F6E74656E745F54797065735D2E786D6C9590410E82301045AFD2740F4517C6180A0BF5065E60AC53688469D30E066F6F91AD9AB89CF9FFFD3F99BA9DC7413C3026E749CB4D59498164
311
FCCD51A7E5C4B6D84BD136F5E5193089ECA5A465CF1C0E4A25D3E308A9F401292BD6C711388FB15301CC1D3A54DBAADA29E38991B8E0254336F5092D4C038BF39CD76B6FC6A538AEBEA54A4B08617006389FA516557DE4AE8E7E70DE30729138228C5F021CD93F02D4FB0DCD0B504B0304140006080800EB6531473DEE336E
311
64000000790000001B0000006175746F6465736B2D64657369676E2D7061636B6167652E786D6C35CBC10E83200C00D05F21DCA56CA76D41FC96062B120735B69A7DBE268BB7777961F8D5AF396893C2ADB70FE7ADA196782C2DF776D7A97B5933C430F15651E5469C55D70F80A4992A3ADC954792C525AE70A1E4D6AD9816
311
CC044FEFDF01FE3FDE907802504B0304140006080800EB65314787702168F8000000960100003700000030383238313636462D394245322D343833362D423634342D4134443639354639363241452F4173736574446174612F636F72652E786D6C8550CB6E833010FC15B477033620E2C83822A5FD829E7AB38C43AC041BF9
311
51F5F36B27546A4F3DED6A76667677D8E96BBD179FCA796DCD00B8ACA15046DA599B6580182EE800C58933676DF84583C288550D9061E06C71366E3B24AD09CA64D4D859EDA0F05E0528E43D3503787955AB28450C89E16FE526E44D2CAAC4E593C7598C7ADEA57A4E6EFAA295034EBA173A4E35416FE7D7036A29EDD1D8B4
311
04919E4CB4A13D3E7723ABB298B3A0D79FEDD22911D49CF435EE504D11EEDF3139B6FD91900F566526673EB8F4F3BE347F077CCC574F2208563DA77F5CE336FFEF1AB5090DD95D9F0A0F1CA7231F03CEAA9C522A8F0853CD89F26F504B0304140006080800EB653147543DAB4BF70000009401000035000000303832383136
311
36462D394245322D343833362D423634342D4134443639354639363241452F536368656D61732F636F72652E786D6C8550CB6E833010FC15B477033620E2C838224DFB03EDA937CB38D44AB0911F553FBF36A1527BEA6957B333B3BBC34E5FCBBDF854CE6B6B06C0650D8532D24EDACC03C4704507284E9C396BC32F1A1446
311
2C6A800C0367B3B371DD21694D5026A3C64E6A0785F72A4021EFA919C0CB0FB58852C49018FE56AE42DEC4AC4A5C3E789CC5A8A75DAAA7E4A6AF5A39E0A47BA2E3A526E8E5FC7C402DA53D1A9B9620D2930B6D688FCFDDC8AA2CE62CE8E567BB744A0435257D8D3B545384FB374C8E6D7F24E49D5599C9990F2EFDBC2FCDDF
311
017FDDEEF4AC7ACCFE78C675FADF336A131AB27B3E141E384E276E03CEAA9C512A5B80A9E63CF937504B0304140006080800EB65314718FF592202010000D70100002D00000030383238313636462D394245322D343833362D423634342D4134443639354639363241452F636F72652E786D6C9591416EC3201045AF82668F
311
6D88E3D811264AD4E4045D7547CDC44189C13250F5F8C5B5ABB6BB7605FABC3FC39F1187F7E141DE70F2C6D91658560041DB396D6CDF420C575A0339483139177E6040AC1AB085590629FAC9C571953A6703DA59B54EE32A2AEF3100E91EE9D282EF6E38A84CC590087FCF46D5DD558F19CB164E8A60862F6B37A10AA841F2
311
826D69D150B67B667C5FEEF69CBF887C26A588C6860D5F9BE1F08A9AB831A44820B7225F5E13158D5E19A3D31FCDD5E004B2A879CDAAEA429BD399D3B2DE54F45495253D964F55B3BD34153F9E53916496C287294D662D32CFE0AFF6C5F82B591CF53F932D0E0F927D87CAE7314B917FEE209DF34AE407504B030414000608
311
0800EB6531471E4BEF2A06010000B201000008000000636F72652E786D6C8D50CB6E842014FD15C21E15D4384E9089D369BFA0ABEEA830968C82E13169FFBE30D2A4DD7575C979DC73B8F4F4B92EE02EAD53460F10171504524F46283D0F30F82B3A407062D41AE37FC920D07C95034C306474B6266C199A8CF65227541B21
311
33C89D931E8269898F01BAE943AEBCE0C14785BB151B9F6E7C96052E761DA35EAD3FD6C94AEEA5808C54B845558F70F78AC9B1E98E84BCD13229190D41891CA5444C5757256DB4B44FFD78A9087A393F1F50D3F71D1AEB8620D2914B5FF71D3EB7232D939951E76DFC735E127B7AE0F83DE5D272A7187D3766C982584A00A3
311
972FC82A5A26E24FE9B0897F9456DAD7242FDC1D0E321C0B3D88189C2E18C7E3BC71A66BB36F504B01021400140006080800EB65314788C2FFA8DA000000200100004F000000000000000000000000000000000030383238313636462D394245322D343833362D423634342D4134443639354639363241452F417373657444
311
6174612F446566696E6974696F6E4974657261746F7250726F706572746965732E62696E504B01021400140006080800EB653147BDC0B2F9130100003002000045000000000000000000000000004701000030383238313636462D394245322D343833362D423634342D4134443639354639363241452F4173736574446174
311
612F496E7374616E636550726F706572746965732E62696E504B01021400140006080800EB65314728BB58AF800100009E0500003D00000000000000000000000000BD02000030383238313636462D394245322D343833362D423634342D4134443639354639363241452F536368656D61732F436F6D6D6F6E536368656D61
311
2E786D6C504B01021400140006080800EB6531472CCEBD668A040000E01200003E000000000000000000000000009804000030383238313636462D394245322D343833362D423634342D4134443639354639363241452F536368656D61732F47656E65726963536368656D612E786D6C504B01021400140006080800EB6531
311
476180134D5F0100006B03000045000000000000000000000000007E09000030383238313636462D394245322D343833362D423634342D4134443639354639363241452F536368656D61732F52656E6465724D6174657269616C536368656D612E786D6C504B01021400140006080800EB6531472037150551000000570000
311
004700000000000000000000000000400B000030383238313636462D394245322D343833362D423634342D4134443639354639363241452F4173736574446174612F41737365745461626C654F66436F6E74656E74732E62696E504B01021400140006080800EB653147F86583405800000068000000450000000000000000
311
0000000000F60B000030383238313636462D394245322D343833362D423634342D4134443639354639363241452F4173736574446174612F53747265616D56657273696F6E5461626C652E696E66504B01021400140006080800EB65314701411B1F350100009A0400003600000000000000000000000000B10C0000303832
311
38313636462D394245322D343833362D423634342D4134443639354639363241452F4173736574446174612F636E782E786D6C504B01021400140006080800EB653147BCF7EAB7090100004F03000034000000000000000000000000003A0E000030383238313636462D394245322D343833362D423634342D413444363935
311
4639363241452F536368656D61732F636E782E786D6C504B01021400140006080800EB653147410A3D5871000000A40000002C00000000000000000000000000950F000030383238313636462D394245322D343833362D423634342D4134443639354639363241452F636E782E786D6C504B01021400140006080800EB6531
311
4762E2C88C7E000000A3000000070000000000000000000000000050100000636E782E786D6C504B01021400140006080800EB65314716E99B5DA6000000350100001300000000000000000000000000F31000005B436F6E74656E745F54797065735D2E786D6C504B01021400140006080800EB6531473DEE336E64000000
311
790000001B00000000000000000000000000CA1100006175746F6465736B2D64657369676E2D7061636B6167652E786D6C504B01021400140006080800EB65314787702168F80000009601000037000000000000000000000000006712000030383238313636462D394245322D343833362D423634342D4134443639354639
311
363241452F4173736574446174612F636F72652E786D6C504B01021400140006080800EB653147543DAB4BF7000000940100003500000000000000000000000000B413000030383238313636462D394245322D343833362D423634342D4134443639354639363241452F536368656D61732F636F72652E786D6C504B010214
311
00140006080800EB65314718FF592202010000D70100002D00000000000000000000000000FE14000030383238313636462D394245322D343833362D423634342D4134443639354639363241452F636F72652E786D6C504B01021400140006080800EB6531471E4BEF2A06010000B201000008000000000000000000000000
311
004B160000636F72652E786D6C504B050600000000110011005A060000771700000000
310
504B0304140006080800EB653147000000000000000000000000370000006662782F46364535364337392D464137342D343530442D414139342D3742443244414338384137342F617474726962757465732E62696E504B0304140006080800EB653147000000000000000000000000350000006662782F4636453536433739
310
2D464137342D343530442D414139342D3742443244414338384137342F76657274696365732E62696E504B0304140006080800EB653147F270F1330600000004000000360000006662782F46364535364337392D464137342D343530442D414139342D3742443244414338384137342F747269616E676C65732E62696E6366
310
60600000504B0304140006080800EB65314751464CB48900000043010000360000006662782F46364535364337392D464137342D343530442D414139342D3742443244414338384137342F6469726563746F72792E786D6C9D8F310EC2300C45AF127987122606C71DD918B841D4B851A43646695A717C52A85029031293A5
310
A76FBF6FACEF7DA7264E43906840EF0FA03836E242F406C6DCEE4EA06AC22492573150D1F66C60C640E8938CB705396EEDD86DE9B5042FE27813D640EA63BB001C722AF6E55CB61E4863F58284D5D3F53DD715CE1C3985E63FD7F1B7EBDD617E9F1E504B0304140006080800EB6531477F4F95973E070000201C0000340000
310
006662782F46364535364337392D464137342D343530442D414139342D3742443244414338384137342F6F626A656374732E786D6CDD595B6FE23814FE2B56F665F721370214469411973242A3CE8C06CD6ADF22130CF5363739494BF7D7EFB16387380D90CE455A6D2B15EAD8C7E77CE77E32797F8C42F444584693F8D670
310
2DC740240E921D8D0FB74691EFCD9181DE4FD18425495EDB67A01847E4D6E0CBC67472604991CAA51DD9E3226CAEAEE67FA12C2031315010E22CBB35B2E08144D8C2459EEC48F668ED708EADC3FE68B956B951277B60387D685C956246E21C5885F518A8480E5CFD5F10C99E4E6CBE41DBE675DBD6BBB0CD1682EB8CD238CB
310
711CBCE2AA715DEF0C578DEB3CB7BFBCEB0DC6E6A0DFF7CCFEB0E79AF3D57C69BA379EB3182E16E3D9DDD840D3C93649C24A01298977A0C51763EA4E6CFEA4125FA2D0C67790C43109249A6D1B7644D2A5246B62A201EB0AD16A0A2965AD2D781D853FB3AD13281A4B1ADA4A38F559B7DE64FB37809075B15296116EE559CE
310
40D712FBD21F9C895DAE6A7AA1198A704E18C5210AE99661060A82ADA5823432DC5B3829C431135A54F4EABC82615FF7A5362EF7451872FF35A6C2D37CF04792678233FA0F6127EEEBB7014F206D41E37C2485CD5F5220319ED862B17CE6F5E4C31248B40FF101AC05C4E49BBC5E03AF058F05EBA531FDB8DA1E373C3EB45F
310
9EB224252CE796279C59FA9DD260CDB4C0F83A8052E2AAEBEE84CA5780FE13205FF18226A039468FFD635FC9CE709CED1316817690834C07FE38887F7DF56D625787A70869B1F21CA6E0B63F09534D0CEDEE1AA4D3C913187DC23C29DC26C021D8F43D8DB99F83A1A030812588F7FBEDD198AE2198C2229CC221480FBF139B
310
7F45F051D28178D3D0505BF8EDA028E5304D3F3BE9EA03D80CA341A52A4DC673F80E7E0ABEB3E5E6E3A6607B1C907BE9D84BB2A731CD2199B633A481AEB9FCB7F527E1911FC2648BC3D3696D5300D71C121E375AD4B2916A41422FC0094FC3A566C4CA3D056F0F431C93A4C8E47A5B9C0A923061FEF6C52F5DB8F5AE3F950D
310
94974903688D6590DC0346538E893195DAAA02A15513142C0C3369818752ABFEB688521F474911F350FBDA149B7C409CE1960854053565D8CA6B15D91DDDEF8B0C82572BC98506A4F46745B8B4F03EC4B1367E19D9330C4934897D0A39189CA5F506ED820ABCCB3C6724DCFB340C8BC8DFD310F2881FE1F40CFD8E12D433D7
310
2379794ED8AE95A06E59CA27950D71C025B00A2495ADCA982F75CAC813E565A6C8672A1B683B641D6A4CFB67D205CF142D802A6314667EE7B8C3A5B79A9BC3DE6261F6DDBB9E39BB190D4CEF66B55A79DE7276335F35F954D1AA9EEF4095BCCCD1FC2F7F28A26D8C69080FB8D87897BE7B2FB2E7AD0DA1D1766EC6B3E16C3E
310
3667B3C1DCEC7B8B8139EA8D17E6BC3FBBEB0D67A3F978ECD98C6449C10292D93DDBF19549A6F1E11C578ABBD73114CA9AEBC94EE9AB29CCFF3886367382A6C4FF6A10AD62574B41D83588F2A3CD108A83479EA2FC00AABE56F76904D1261F6D71EE8D71D9B13C47FCB8EEB8E78C7BA3F1B032F68B815ADCF3C371AE4D8200
310
FACE22F7931407346F4FA80D5C3AC6E937E516CB730708D0A9FE56975CCE33F2129F46F840FC3DE65D424B60BC26416B0E3B844996D19864A2CB7B55FD35683A1614537ACE6D31429AF911C9F1F7D89F681B1A360DB139F4A11FCDF944E06A555019B4EC40CE51E4DD2F246E21FF8B9FE1280DCB4EF71A066E4F41A07A9C36
310
8BE34CF32B9EC0DE7C9CFBCE8E88C1C535EA15FBAA3E68D55A93FAF8BBC99F8147D535BF101E7545F7D2C91AB863FE3382A0321CB8DE8D52C435ACD45539EFE3C2023ACFE0C57F26F4F0D0A9D0ECA6935AC95616D53989A08DC579C13AF9EB70E0BCBA48C6858643D46E7A637128FA37D5C1017AA2813B57DED6AE813A94C6
310
30E7EA24C82B295A4D58E842CCF4F8E8EA0D7E7D51D975AA3F1C2F7F79C55C77BE480C7FAEE300D572198065F4D16AEAD6AA5BAB87B2679C07104837E2D39C8347ECC8EED49869E4DA4A74559F5EAB9ED73CA04630B1C53CCEDEF32FE1570CAA86EE39B33F94459B5DAEAF7962B360387DE243635AA7F5F9C3A64105563A9F
310
FEC23122CF0D0A7275C1BBE10BA4BEAD4F3D7F838294E8DBFAC2F1FF4447A114581BA3C134384B420A4379B243079240F686B143876E8345241359198C570629F546A0C3E9A772A69AE36DA84E070F1806D3A1ECC58A0086A290316F0DB98E7E8331289F448AE194F5086D988C61062A18BD35C062730ADD96B5857196181E
310
0AEA8D712538368E0F3CDF97A7AAFF4FC7383A10954E72557BBAE02225D39C090ADB54BC2780AAAF7C309D7CBFE88A1D8473F8BA2DF24A98D3C2491A09827A21500A0753BF4709EF110A8ACB72B996D8A341D269327FD10E4AAA668ED9418CD76B78CF965F6C3E195F7F4669581CB83A2F75BF1A259377DD61514EA1266018
310
52CC14F31A72F1CEFEC21278C514A115052340BF1F47C33FEC451245495C2ED933F9A20A6D1EE0B5D3CE56233F68E31D77608B29801CEBFB5B9C110BEFB2475800D532CA67A325C49A0154D1B466004A235C17704CDBBF5E22591BD52624F5B0CBE111337D048EC4DFE570B7A96FA80D20C117802BF1F0F4452D4C6C0643F0
310
E9BF504B0304140006080800EB6531473A78D6983F01000046050000300000006662782F46364535364337392D464137342D343530442D414139342D3742443244414338384137342F636E782E786D6CCD94414EC3301045AF62791F3B894085CA7125169C800562E738D3E036B1237B8CE8EDB14B5A40A88845A576678DFF
310
48FFCD7C8D58BD8F0379031F8CB30DAD58490958ED3A63FB86465C177794ACA4F0CEE1371925568DD0D05CA652F4DEC5692E75B05671C8D5C1D8ED5C5488DEB4112150A207154243837E85513115D17510B6AC53A858C53C0417BD86D48F6684B95F7B50081D957559DD16E57D512D9EAA7A79B358D6F58BE0592945EBDC30
310
EB8D45F06E22DAA5874D664AC1F3B714D19B599309A8FC72C65A63054FFF5284E4D6F6B30E7753D64DD360B4C23426EE34021649046A14FC532C05CFBC3FA81F1F9E0F0E48673C68747E77A10154A7067034C65212FEC7BF17FE8DEDDA4DC2BDD4B64FC2CEB6CE867A486B4871FDBDFF942265FBE1FA427F3476FECCA75382
310
465F1FF2C1D79988F9FEE4A5A5E70B283F00504B0304140006080800EB65314785D55A527E000000A30000000B0000006662782F636E782E786D6C4DCCD10A83201805E05791FFDEAD0D4B03355CAEF7886521990E97638F3F1D5DECEAC0C73987779FCDA1B7892F1BBC80CBA90264FC234CD62F02D23E6306A8933C86B0FF
310
D500F97133020A83E44B0CE979D064E631B9A2CEFAF5C0A1B9D74D4F5B3C284A30A92B8D956A09A6377DD5AA672C735E9CCB24C7EF2F67B9975F504B0304140006080800EB653147A6D797065F0000008200000007000000636E782E786D6C4DCB3B0E80201045D1AD90E9FD7516806B51190811670C8A61F982B1B0BAC9C9
310
7B72CA7B1037C6D3332918DA1E04D2CAC69353902EDB8C20262D23F3F59B81A079470595414B17391D1F19B4730A5583A7ED43BBE4025D9592775E5ADFFA01504B0304140006080800EB6531474FEB6A7CA0000000F4000000130000005B436F6E74656E745F54797065735D2E786D6C7D8F4B0EC2300C44AF1279DFA6B040
310
0835ED02B8011730C16D239A8F121795DB93D02D6269CFBC19BBED573B8B17C564BC53B0AB1B10E4B47F18372A5878A88E20FAAEBDBD032591BD2E299898C349CAA427B2986A1FC86565F0D122E7318E32A07EE24872DF3407A9BD63725C71C980AEBDD080CBCCE2BAE6F5D69B7110E7CD57AA146008B3D1C8F92C5954F993
310
BB1BF787F39A89ABC491D09600F9FDA2FB00504B0304140006080800EB6531473DEE336E64000000790000001B0000006175746F6465736B2D64657369676E2D7061636B6167652E786D6C35CBC10E83200C00D05F21DCA56CA76D41FC96062B120735B69A7DBE268BB7777961F8D5AF396893C2ADB70FE7ADA196782C2DF7
310
76D7A97B5933C430F15651E5469C55D70F80A4992A3ADC954792C525AE70A1E4D6AD9816CC044FEFDF01FE3FDE907802504B0304140006080800EB6531478FA14124F8000000960100003B0000006662782F46364535364337392D464137342D343530442D414139342D3742443244414338384137342F7265736F75726365
310
732F636F72652E786D6C8550CB6EC32010FC158B3B361047B6234CE43CFA053DF586F0C64189C1E251F5F30BB12BB5A79E16CDCECC32C38F5FF3B3F804E7B5353DA22541051865476DA61EC570C32D2A8E823B6BC32F1A2A8C9CA1471946824FCEC665839435014C468D1D6103A5F71050A19EE9D123AFEE30CB52C69018FE
310
512E523DE404252D579EE031EA7193EA31B9E99B068704BD5EEBB6DB11DC9EF60CD77468F0E9D29C3165DD1BA92F6736908157592C78D0F3CF75E5400618916084EE31E9306DDE293BD4CD81B10F5E65A6E03EB894793B9AD321E1C0DBE814785EADDB3FAE7119FF778DDA841DDB5C57854F39D2275F0BC1ABDC521AAF0AD3
310
CC8D8A6F504B0304140006080800EB653147C47A16F8F3000000B1010000310000006662782F46364535364337392D464137342D343530442D414139342D3742443244414338384137342F636F72652E786D6C8D50CB6E833010FC15B47703762140641CD1D07C414FBD59C6A156828DFCA8FAF9B50395DA5B4E6BCDCE7866
310
879EBE977BF625AD5346F780F31232A98599949E7B08FE8A5AC84E8C5A63FC1F1A649A2FB2870403A3B33561DD2161B4973AA1DA4C7207B973D24326EEF1D183139F72E1390F3E32DC2D5FB9B8F159E638DF788C7AB5FC4A8595DCCB091829718DCA0EE1E61D9363D51C09F9A04562321A829A762B3545777555D202BB1CDE
310
EAC3B9E9D065682A54D5E58886A1AB50F33A927138B76D846991C48C3A6FE3CDFB27E9BA67E59BF05FE6B04E4F6456DABF90DD7053386038E6792C182D5281713CDA8D3395CD7E00504B0304140006080800EB6531478FF1FD9453010000DD0200000C0000006662782F636F72652E786D6C8D52DB8E832014FC15C33B2AD4
310
C6768334BDED17ECD3BE51A42EA9824130FDFC052F717DD8EEC604C99C3373CE4C2087675347BD309DD4AA00284E412414D7A55455019CBDC31D880E9418ADED8F361029D688020418505219EDDA09E25A59A102AA74292690759DB020E2B5BF14A0E35FA2613173D677748FB865FCC12A11A378ECA3C439594E54597A3579
310
97C2008AAED76CB7DFA47077DA6298A1630E4F97FC0C11DEBFA7D9E58C8FE99124814C8995CD3C9D1BC1AC2801C529DAC2740F51FE81F05B96BF61FC4992D04949678DF73C0D0DEE00BDDF9E2419F1959E6BCBBFF59C54768327BD91D179077EBDA1404912F2F1BF21BC75867EB0CFCFB25B3D5B7878A817DC6A93F94AA9DD
310
52EA59ED84974EA3E123C958F5CA83C06F3AF885CE6B0D1F1453955F8D597FBD391BA6AF776A8581BD7D464A9B86D5CB72E38ACBB90C5A599AE95CD7DAFC873D5B9DC34CC2C3A4DF504B0304140006080800EB653147A69AF63207010000B201000008000000636F72652E786D6C8D504B6EC32014BC0A628F0DC491ED0813
310
399F9EA0ABEEA8212E8A0D16E0A8BD7D21A652BBEBEAA199796F8661C7CF79020FE5BCB6A683A4C010283358A9CDD8C135DC5003C19133676DF82583C088597530C190B3D1D975C9D0604D5026A1C64A9541E1BD0A100C537C74D00F1F6A1685584354F87BB188E12E46559062D37116F4FCB33A3825829290534CF608B788
310
D4AF841EAAFA40E91B2B9392B375D5325B6919DDF54D2B0739B95EABA6DD61D49CF61455A4AFD1E9529F11A1ED0BAE2E67DAE39E956999331F5CFC733E127306E0C523F9B272A3387BB776CA82184A026BA62FC8312B13F127F4BAC87F84D626EC683EB86DF89839067A12D1383518C7B3DE3853DBFC1B504B010214001400
310
06080800EB6531470000000000000000000000003700000000000000000000000000000000006662782F46364535364337392D464137342D343530442D414139342D3742443244414338384137342F617474726962757465732E62696E504B01021400140006080800EB653147000000000000000000000000350000000000
310
0000000000000000550000006662782F46364535364337392D464137342D343530442D414139342D3742443244414338384137342F76657274696365732E62696E504B01021400140006080800EB653147F270F13306000000040000003600000000000000000000000000A80000006662782F46364535364337392D464137
310
342D343530442D414139342D3742443244414338384137342F747269616E676C65732E62696E504B01021400140006080800EB65314751464CB489000000430100003600000000000000000000000000020100006662782F46364535364337392D464137342D343530442D414139342D3742443244414338384137342F6469
310
726563746F72792E786D6C504B01021400140006080800EB6531477F4F95973E070000201C00003400000000000000000000000000DF0100006662782F46364535364337392D464137342D343530442D414139342D3742443244414338384137342F6F626A656374732E786D6C504B01021400140006080800EB6531473A78
310
D6983F0100004605000030000000000000000000000000006F0900006662782F46364535364337392D464137342D343530442D414139342D3742443244414338384137342F636E782E786D6C504B01021400140006080800EB65314785D55A527E000000A30000000B00000000000000000000000000FC0A00006662782F63
310
6E782E786D6C504B01021400140006080800EB653147A6D797065F000000820000000700000000000000000000000000A30B0000636E782E786D6C504B01021400140006080800EB6531474FEB6A7CA0000000F40000001300000000000000000000000000270C00005B436F6E74656E745F54797065735D2E786D6C504B01
310
021400140006080800EB6531473DEE336E64000000790000001B00000000000000000000000000F80C00006175746F6465736B2D64657369676E2D7061636B6167652E786D6C504B01021400140006080800EB6531478FA14124F8000000960100003B00000000000000000000000000950D00006662782F46364535364337
310
392D464137342D343530442D414139342D3742443244414338384137342F7265736F75726365732F636F72652E786D6C504B01021400140006080800EB653147C47A16F8F3000000B10100003100000000000000000000000000E60E00006662782F46364535364337392D464137342D343530442D414139342D3742443244
310
414338384137342F636F72652E786D6C504B01021400140006080800EB6531478FF1FD9453010000DD0200000C00000000000000000000000000281000006662782F636F72652E786D6C504B01021400140006080800EB653147A69AF63207010000B20100000800000000000000000000000000A5110000636F72652E786D
310
6C504B0506000000000E000E0080040000D21200000000
  0
XRECORD
  5
11
102
{ACAD_REACTORS
330
E
102
}
330
E
100
AcDbXrecord
280
     1
270
     1
271
     1
  0
XRECORD
  5
12
102
{ACAD_REACTORS
330
E
102
}
330
E
100
AcDbXrecord
280
     1
270
     1
271
     1
  0
XRECORD
  5
13
102
{ACAD_REACTORS
330
E
102
}
330
E
100
AcDbXrecord
280
     1
270
     1
271
     1
  0
XRECORD
  5
14
102
{ACAD_REACTORS
330
E
102
}
330
E
100
AcDbXrecord
280
     1
270
     1
271
     1
  0
XRECORD
  5
B56
102
{ACAD_REACTORS
330
B55
102
}
330
B55
100
AcDbXrecord
280
     1
102
DISPLAYNAME
  1
Imperial24
102
FLAGS
 90
        0
  0
CELLSTYLEMAP
  5
B4A
102
{ACAD_REACTORS
330
4E
102
}
330
4E
100
AcDbCellStyleMap
 90
        3
300
CELLSTYLE
  1
TABLEFORMAT_BEGIN
 90
        5
170
     1
 91
        0
 92
    32768
 62
   257
 93
        1
300
CONTENTFORMAT
  1
CONTENTFORMAT_BEGIN
 90
        0
 91
        0
 92
      512
 93
        0
300

 40
0.0
140
1.0
 94
        5
 62
     0
340
27
144
0.25
309
CONTENTFORMAT_END
171
     0
 94
        0
309
TABLEFORMAT_END
  1
CELLSTYLE_BEGIN
 90
        1
 91
        1
300
_TITLE
309
CELLSTYLE_END
300
CELLSTYLE
  1
TABLEFORMAT_BEGIN
 90
        5
170
     1
 91
        0
 92
        0
 62
   257
 93
        1
300
CONTENTFORMAT
  1
CONTENTFORMAT_BEGIN
 90
        0
 91
        0
 92
      512
 93
        0
300

 40
0.0
140
1.0
 94
        5
 62
     0
340
27
144
0.18
309
CONTENTFORMAT_END
171
     0
 94
        0
309
TABLEFORMAT_END
  1
CELLSTYLE_BEGIN
 90
        2
 91
        1
300
_HEADER
309
CELLSTYLE_END
300
CELLSTYLE
  1
TABLEFORMAT_BEGIN
 90
        5
170
     1
 91
        0
 92
        0
 62
   257
 93
        1
300
CONTENTFORMAT
  1
CONTENTFORMAT_BEGIN
 90
        0
 91
        0
 92
      512
 93
        0
300

 40
0.0
140
1.0
 94
        2
 62
     0
340
27
144
0.18
309
CONTENTFORMAT_END
171
     0
 94
        0
309
TABLEFORMAT_END
  1
CELLSTYLE_BEGIN
 90
        3
 91
        2
300
_DATA
309
CELLSTYLE_END
  0
ENDSEC
  0
SECTION
  2
ACDSDATA
 70
     2
 71
     8
  0
ACDSSCHEMA
 90
        0
  1
AcDb_Thumbnail_Schema
  2
AcDbDs::ID
280
    10
 91
        8
  2
Thumbnail_Data
280
    15
 91
        0
101
ACDSRECORD
 95
        0
 90
        1
  2
AcDbDs::TreatedAsObjectData
280
     1
291
     1
101
ACDSRECORD
 95
        0
 90
        2
  2
AcDbDs::Legacy
280
     1
291
     1
101
ACDSRECORD
  1
AcDbDs::ID
 90
        3
  2
AcDs:Indexable
280
     1
291
     1
101
ACDSRECORD
  1
AcDbDs::ID
 90
        4
  2
AcDbDs::HandleAttribute
280
     7
282
     1
  0
ACDSSCHEMA
 90
        1
  1
AcDbDs::TreatedAsObjectDataSchema
  2
AcDbDs::TreatedAsObjectData
280
     1
 91
        0
  0
ACDSSCHEMA
 90
        2
  1
AcDbDs::LegacySchema
  2
AcDbDs::Legacy
280
     1
 91
        0
  0
ACDSSCHEMA
 90
        3
  1
AcDbDs::IndexedPropertySchema
  2
AcDs:Indexable
280
     1
 91
        0
  0
ACDSSCHEMA
 90
        4
  1
AcDbDs::HandleAttributeSchema
  2
AcDbDs::HandleAttribute
280
     7
 91
        1
284
     1
  0
ACDSRECORD
 90
        0
  2
AcDbDs::ID
280
    10
320
1D
  2
Thumbnail_Data
280
    15
 94
     1025
310
89504E470D0A1A0A0000000D49484452000000B40000007E0803000000BA60CBD200000300504C5445FFFFFF000000FFFFFF0000000000000000000000000000000000000000000000000000330000660000990000CC0000FF0033000033330033660033990033CC0033FF0066000066330066660066990066CC0066FF0099
310
000099330099660099990099CC0099FF00CC0000CC3300CC6600CC9900CCCC00CCFF00FF0000FF3300FF6600FF9900FFCC00FFFF3300003300333300663300993300CC3300FF3333003333333333663333993333CC3333FF3366003366333366663366993366CC3366FF3399003399333399663399993399CC3399FF33CC00
310
33CC3333CC6633CC9933CCCC33CCFF33FF0033FF3333FF6633FF9933FFCC33FFFF6600006600336600666600996600CC6600FF6633006633336633666633996633CC6633FF6666006666336666666666996666CC6666FF6699006699336699666699996699CC6699FF66CC0066CC3366CC6666CC9966CCCC66CCFF66FF0066
310
FF3366FF6666FF9966FFCC66FFFF9900009900339900669900999900CC9900FF9933009933339933669933999933CC9933FF9966009966339966669966999966CC9966FF9999009999339999669999999999CC9999FF99CC0099CC3399CC6699CC9999CCCC99CCFF99FF0099FF3399FF6699FF9999FFCC99FFFFCC0000CC00
310
33CC0066CC0099CC00CCCC00FFCC3300CC3333CC3366CC3399CC33CCCC33FFCC6600CC6633CC6666CC6699CC66CCCC66FFCC9900CC9933CC9966CC9999CC99CCCC99FFCCCC00CCCC33CCCC66CCCC99CCCCCCCCCCFFCCFF00CCFF33CCFF66CCFF99CCFFCCCCFFFFFF0000FF0033FF0066FF0099FF00CCFF00FFFF3300FF3333
310
FF3366FF3399FF33CCFF33FFFF6600FF6633FF6666FF6699FF66CCFF66FFFF9900FF9933FF9966FF9999FF99CCFF99FFFFCC00FFCC33FFCC66FFCC99FFCCCCFFCCFFFFFF00FFFF33FFFF66FFFF99FFFFCCFFFFFF0000000D0D0D1A1A1A2828283535354343435050505D5D5D6B6B6B787878868686939393A1A1A1AEAEAEBB
310
BBBBC9C9C9D6D6D6E4E4E4F1F1F1FFFFFF000000000000000000000000000000000000000000000000000000000000790CAC0F000000BC4944415478DAEDDC310A80300C0550EF7FCC5EA0537627C10E0EE2926F5F46BB3C4AE137417A8CB89AF318155699E8918CBE8ECB6D65A936DF1774CA2E434343437F474B44686868
310
E8E6F76989080D0D0D0D0D0D0D0D6D84A0738186868636F710E3D0D0D0D00DD06DFE577A856EB4B3D0D0D09DD115822E686868E84DD112111A1A7A677462376E58030D0DFD637452414343434387A0C5383434343434343434B4B987CE051A1A1ADA08011A1A1ABAD21FAE9488D00FE8C017864F2B546331CE0DE13A000000
310
0049454E44AE426082
  0
ACDSRECORD
 90
        0
  2
AcDbDs::ID
280
    10
320
17
  2
Thumbnail_Data
280
    15
 94
     2117
310
89504E470D0A1A0A0000000D49484452000001000000007B0803000000AC3EAEE200000300504C5445FFFFFFFFFFFFFFFFFF0000000000000000000000000000000000000000000000000000330000660000990000CC0000FF0033000033330033660033990033CC0033FF0066000066330066660066990066CC0066FF0099
310
000099330099660099990099CC0099FF00CC0000CC3300CC6600CC9900CCCC00CCFF00FF0000FF3300FF6600FF9900FFCC00FFFF3300003300333300663300993300CC3300FF3333003333333333663333993333CC3333FF3366003366333366663366993366CC3366FF3399003399333399663399993399CC3399FF33CC00
310
33CC3333CC6633CC9933CCCC33CCFF33FF0033FF3333FF6633FF9933FFCC33FFFF6600006600336600666600996600CC6600FF6633006633336633666633996633CC6633FF6666006666336666666666996666CC6666FF6699006699336699666699996699CC6699FF66CC0066CC3366CC6666CC9966CCCC66CCFF66FF0066
310
FF3366FF6666FF9966FFCC66FFFF9900009900339900669900999900CC9900FF9933009933339933669933999933CC9933FF9966009966339966669966999966CC9966FF9999009999339999669999999999CC9999FF99CC0099CC3399CC6699CC9999CCCC99CCFF99FF0099FF3399FF6699FF9999FFCC99FFFFCC0000CC00
310
33CC0066CC0099CC00CCCC00FFCC3300CC3333CC3366CC3399CC33CCCC33FFCC6600CC6633CC6666CC6699CC66CCCC66FFCC9900CC9933CC9966CC9999CC99CCCC99FFCCCC00CCCC33CCCC66CCCC99CCCCCCCCCCFFCCFF00CCFF33CCFF66CCFF99CCFFCCCCFFFFFF0000FF0033FF0066FF0099FF00CCFF00FFFF3300FF3333
310
FF3366FF3399FF33CCFF33FFFF6600FF6633FF6666FF6699FF66CCFF66FFFF9900FF9933FF9966FF9999FF99CCFF99FFFFCC00FFCC33FFCC66FFCC99FFCCCCFFCCFFFFFF00FFFF33FFFF66FFFF99FFFFCCFFFFFF0000000D0D0D1A1A1A2828283535354343435050505D5D5D6B6B6B787878868686939393A1A1A1AEAEAEBB
310
BBBBC9C9C9D6D6D6E4E4E4F1F1F1FFFFFF000000000000000000000000000000000000000000000000000000000000AD4AB4E4000003EA4944415478DAED9D8DB5AB200C80B341CEE930AEF496E99499E10EF0AAA004C43FB42584A43DADB77A5BF3918400B10530313131313139101427BF0620AE457EFF79B2DABF060090
310
A47E1D0062CC1F2BB9809C886C166000D401B8D0B9AB047025BDD10FE020E1D3EE0291D639048A016046E33502BDBD00E673FC1481E26E702B0A623F1670868C5600FB9D20AA0780A7F72BED05CE1F6100546682178ED10860E3AD892873543F008862027A012071F19A6704F50218DB7B6AF4F1E6207817E80340D03F34FF
310
B409D11ECD008296105A1D884320D00A20D63F1881A3C1F7604D00F8450089FEC1FA63FD9D0FE89B16C7B5FEACE51D05E6032A5D60A57FACFABC573180B4FD5DF823E60FD563C02F83E01CFE2801A31640A43F51C6077810D4990805FDC33028ABBFE64C70950850A43F68CF04BDD7F35C384E841403C8EB9F26426A0124E3
310
E1CDD130F501209E0FE8634668734E2C778C58006983DD2710BD9FEC59E145F752086D03F0E7390F988B10E0810B485E199A4F33CC18141168776D90566749CFC581351C710028A341218126EB03E25425D37DDF4520BE4284D83173B113957F141E21911A03BCF6617CFF048236AAC49CC1B3EA3EA29B1F27B24E70AF9B1A
310
35C6F92044FAEEC9889C166799E04E2780CF9C8CFCB100654FFBA18B9D9A180DD2865F6BB0002C0470DB02A40C87AB5F2B58DF020A6DE066E8976301A551E0A959A346003C4FA035008F13680F00E90400B50048C903A81201120280EA89140BF0EBB6FE76B8096EAD674A05AFFE0F7F6121503D06E038F355A43FDED07F59
310
299600C097B05CD285A699925BFA0B0170DCFEC91F4E7F206F01E5ED4F8282E055FDDD0D6FB5BF180BA8DC093493087D2B0F6A0700F40D80401B001403A0896A7102E8DB057A07406000B6FC57EF5769D194EFEF1B0046DF1612376BD3005CA6B62C0DEF006073FCF35786A0B76B18601805C03FCE1BEFF7E7FE9171EB8D52
310
ABC4F8F2389CB380B45147004E6F76070FE0F334DD516C814458393AB200FE476A01ACE1630B7000445A40A81099DBF7280684695E0660C801F8DC5FD22D20A91182BD1A21E4C12F098289F73713032E55893DF02D99D8749D60B4D6CB977D9D050CC36B989FFCD6222FFF22365D2A9B05B0B8C0C7E2FF26A3F70F30FC5BB6
310
9667945A25C600D019002B176839118A34DE9B0AE2FAF2D7AE682433158EABC4E08C05148F0F5ABE6264B303C01C20E61ADC625ABE6668EDF0910B20E6BB095135424F00C00D00AEDC3424C9DC0650C57583472560670AC5DA06C007C5BC78F21C00D00120AFD509007563003E6901ABD1109EE913C378BB7117D8DD11053C
310
F03D2082845EA0F7DF17286ACFAFEC40FB898D9F03E8FD57664C4C4C4C4C4C4C4C4C4C4C4C4C54C97FF5415F2D82602C400000000049454E44AE42608290CAC90300601F7E62CD1FED42E0D2C6607700BC794ECAF7BB007E33FA7BB2A24AC097BB0BFA8CF91BF25B33945F04EC2E84005EFB007EF40E4B00F0960FE829148E
310
AF1B845C00EEC4C9F36F4CBA37142E5F397A00A0BBD660B87698201FC0DE3BB3A2EB04D68549CC9E2CED3CED2BA733DC44FC6BF46BBC9FD74A3693CBD1A9273CD3E1D52354B0562E31EB37EC26C0786D71DB5CE14B7BB183F26E1B453E00F032DFA3842000C0EE24F0ACDAB153006E3F00846B088AA6E70B07001B756FF001
310
580B80D12F01000A164C608F1690AED39C461EA7152315016014009B50F8E9AFDCCCEAD66A957AC34B579FFEDADD6EA40E80A7BF7A7BC8902143860C192250FE03C86ABD8BFEBF7C4C0000000049454E44AE426082
  0
ENDSEC
  0
EOF
